[Login] or [Signup]

,
Search











Latest Posters
Valiyavan (2019 - Valiyavan South Hindi Dubbed)  - 720p - HD Rip[x264 - AC3(5.1Ch)] - 1.4 GB  / Hindi Dubbed - Movies
Kaashi in Search of Ganga (2019) Hindi - 720p WEB-DL - x264 - AAC 2.0 - Sun George / Bollywood - WebHD
Bari Tar Bangla 2013 Bengali Movie DVDRip x264 aac / Bangla - Movies
Seetharama Kalyana (2019 - Seetharama Kalyana South  Hindi Dubbed) - 720p - HDTV Rip[x264 - AAC3(5.1Ch)] - 1.4 GB / Hindi Dubbed - Movies
Mukherjee Dar Bou (2019) Bengali Movie - 720p -  HDTV Rip[x264 - AC3(5.1Ch)] - 1.4 GB / Bangla - Movies
Kidnap 2019 Bengali Movie Ft Dev  720p HDRip 700MB x264 / Bangla - Movies

Torrent Details For "Halla.Gulla.(2015).HDTv-Rip.720p.Urdu.x264.AAC.-.LHDm [First on NET]"

Halla.Gulla.(2015).HDTv-Rip.720p.Urdu.x264.AAC.-.LHDm [First on NET]

Download this torrent -- Magnet Download

Health:
Seeds: 4,294,967,295
Leechers: 4,294,967,295
Completed: 4,294,967,295 
Last Checked: 03-07-2019 14:02:49
External Torrent
UPDATE_STATS


Details
Name:Halla.Gulla.(2015).HDTv-Rip.720p.Urdu.x264.AAC.-.LHDm [First on NET]
Description:
Available----- www.LatestHDmovies.ORg
Available----- www.LatestHDmovies.ORg
Available----- www.LatestHDmovies.ORg
Available----- www.LatestHDmovies.ORg
Available----- www.LatestHDmovies.ORg
Available----- www.LatestHDmovies.ORg


General
Unique ID                   : 284344355402292305166188643874585152505 (0xD5EABB198DDFF3F2A4C4898E392B8BF9)
Complete name               : C:\Users\Administrator\Downloads\Video\[LatestHDmovies.ORg]-Halla.Gulla.(2015).HCensoredv-Rip.720p.Urdu.x264.AAC.mkv
Format                      : Matroska
Format version              : Version 4
File size                   : 1.07 GiB
Duration                    : 2 h 12 min
Overall bit rate            : 1 151 kb/s
Movie name                  : Official Releaser www.LatestHDmovies.ORg
Encoded date                : UTC 2019-05-02 23:42:07
Writing application         : mkvmerge v32.0.0 ('Astral Progressions') 32-bit
Writing library             : libebml v1.3.7 + libmatroska v1.5.0

Video
ID                          : 1
Format                      : AVC
Format/Info                 : Advanced Video Codec
Format profile              : [email protected]
Format settings             : CABAC / 4 Ref Frames
Format settings, CABAC      : Yes
Format settings, ReFrames   : 4 frames
Codec ID                    : V_MPEG4/ISO/AVC
Duration                    : 2 h 12 min
Bit rate                    : 1 061 kb/s
Width                       : 1 280 pixels
Height                      : 544 pixels
Display aspect ratio        : 2.35:1
Frame rate mode             : Constant
Frame rate                  : 25.000 FPS
Color space                 : YUV
Chroma subsampling          : 4:2:0
Bit depth                   : 8 bits
Scan type                   : Progressive
Bits/(Pixel*Frame)          : 0.061
Stream size                 : 1 001 MiB (91%)
Title                       : LatestHDmovies.ORg
Writing library             : x264 core 157
Encoding settings           : cabac=1 / ref=1 / deblock=1:0:0 / analyse=0x3:0x3 / me=dia / subme=1 / psy=1 / psy_rd=1.00:0.00 / mixed_ref=0 / me_range=16 / chroma_me=1 / trellis=0 / 8x8dct=1 / cqm=0 / deadzone=21,11 / fast_pskip=1 / chroma_qp_offset=0 / threads=12 / lookahead_threads=2 / sliced_threads=0 / nr=0 / decimate=1 / interlaced=0 / bluray_compat=0 / constrained_intra=0 / bframes=3 / b_pyramid=2 / b_adapt=1 / b_bias=0 / direct=1 / weightb=1 / open_gop=0 / weightp=1 / keyint=250 / keyint_min=25 / scenecut=40 / intra_refresh=0 / rc=abr / mbtree=0 / bitrate=1061 / ratetol=1.0 / qcomp=0.60 / qpmin=0 / qpmax=69 / qpstep=4 / ip_ratio=1.40 / pb_ratio=1.30 / aq=1:1.00
Default                     : Yes
Forced                      : No

Audio
ID                          : 2
Format                      : AAC LC
Format/Info                 : Advanced Audio Codec Low Complexity
Codec ID                    : A_AAC-2
Duration                    : 2 h 12 min
Bit rate                    : 96.0 kb/s
Channel(s)                  : 1 channel
Channel layout              : C
Sampling rate               : 44.1 kHz
Frame rate                  : 43.066 FPS (1024 SPF)
Compression mode            : Lossy
Delay relative to video     : -46 ms
Stream size                 : 91.5 MiB (8%)
Title                       : LatestHDmovies.ORg
Language                    : Urdu
Default                     : Yes
Forced                      : No

Text
ID                          : 3
Format                      : UTF-8
Codec ID                    : S_TEXT/UTF8
Codec ID/Info               : UTF-8 Plain Text
Duration                    : 1 h 2 min
Bit rate                    : 0 b/s
Count of elements           : 2
Stream size                 : 130 Bytes (0%)
Title                       : LatestHDmovies.ORg
Default                     : Yes
Forced                      : No









Category:Pakistani > Movies
Lang:Urdu
Total Size:1.07 GB
Info Hash:6c309b98bf47296d33f5c5b38273de42e7c61657
Added By:LatestHDmovies
Date Added:03-05-2019 02:58:55
Views:325
Hits:57


Ratings:Not Yet Rated (Log in to rate it)


Tracker:
udp://tracker.pirateparty.gr:6969/announce

This Torrent also has backup trackers
URLSeedersLeechersCompleted
http://tracker.torrentyorg.pl:80/announce2223
https://tracker.fastdownload.xyz:443/announce220
http://tracker.electro-torrent.pl:80/announce1216
http://retracker.mgts.by:80/announce003
http://t.nyaatracker.com:80/announce100
https://bwt.pw/announce.php4,294,967,2954,294,967,2954,294,967,295
http://vps02.net.orel.ru:80/announce110
https://tracker.fastdownload.xyz:443/announce220
https://seeders-paradise.org:443/announce000
http://share.camoe.cn:8080/announce000
http://open.acgnxtracker.com:80/announce110


File List: 


Comments

NOCOMMENTS

Page Generated In 0.000000 secs.