[Login] or [Signup]

,
Search











Latest Posters
Kadaram Kondan.2019.1080p.AMZN.WeB.DL.H264.DDP.5.1.DusIcTv / Tamil - Movies
Ninu Veedani Needanu Nene.2019.1080p.AMZN.WeB.DL.H264.DDP.5.1.DusIcTv / Telugu - Movies
Nabab 2019 Bangla Movie Shakib Khan HDRip 1GB / Bangla - Movies
Devon Ke Dev... Mahadev (2011) Hindi - {Episodes 224 To 344 } - 720p WEB-DL - x264 - AAC 2.0 - Sun George / Bollywood - WebHD
The Avengers Earths Mightiest Heroes [2010-12] Complete S01 1080p Bluray x 264 Duel Aud [Hin DD 2.0 + Eng DDP 5.1] - Esub Reperza-Cinemaghar  / Hollywood - Anime, Cartoon
The Avengers Earths Mightiest Heroes [2010-12] Complete S01 720p Bluray x 264 Duel Aud [Hin DD 2.0 + Eng DDP 5.1] - Esub Reperza-Cinemaghar  / Hollywood - Anime, Cartoon

Torrent Details For "The Third Party (2016) 1080p NF Filipino WEB-DL DDP 2.0 MSub - DusIcTv"

The Third Party (2016) 1080p NF Filipino WEB-DL DDP 2.0 MSub - DusIcTv

Download this torrent -- Magnet Download

Health:
Seeds: 0
Leechers: 0
Completed:
Last Checked: 20-08-2019 10:28:12
External Torrent
UPDATE_STATS


Details
Name:The Third Party (2016) 1080p NF Filipino WEB-DL DDP 2.0 MSub - DusIcTv
Description:



The Third Party (2016) 1080p NF Filipino WEB-DL DDP 2.0 MSub - DusIcTv


General
Complete name                            : The Third Party (2016) 1080p NF Filipino WEB-DL DDP 2.0 MSub - DusIcTv.mkv
Format                                   : Matroska
Format version                           : Version 4 / Version 2
File size                                : 4.88 GiB
Duration                                 : 1 h 57 min
Overall bit rate mode                    : Variable
Overall bit rate                         : 5 922 kb/s
Encoded date                             : UTC 2019-05-03 08:49:02
Writing application                      : mkvmerge v32.0.0 ('Astral Progressions') 64-bit
Writing library                          : libebml v1.3.7 + libmatroska v1.5.0

Video
ID                                       : 1
Format                                   : AVC
Format/Info                              : Advanced Video Codec
Format profile                           : [email protected]
Format settings                          : CABAC / 3 Ref Frames
Format settings, CABAC                   : Yes
Format settings, RefFrames               : 3 frames
Codec ID                                 : V_MPEG4/ISO/AVC
Duration                                 : 1 h 57 min
Bit rate mode                            : Variable
Bit rate                                 : 5 800 kb/s
Maximum bit rate                         : 8 700 kb/s
Width                                    : 1 920 pixels
Height                                   : 1 080 pixels
Display aspect ratio                     : 16:9
Frame rate mode                          : Constant
Frame rate                               : 23.976 (24000/1001) FPS
Color space                              : YUV
Chroma subsampling                       : 4:2:0
Bit depth                                : 8 bits
Scan type                                : Progressive
Bits/(Pixel*Frame)                       : 0.117
Stream size                              : 4.77 GiB (98%)
Writing library                          : x264 core 148 r2715 7e75228
Default                                  : Yes
Forced                                   : No

Audio
ID                                       : 2
Format                                   : E-AC-3
Format/Info                              : Enhanced Audio Coding 3
Codec ID                                 : A_EAC3
Duration                                 : 1 h 57 min
Bit rate mode                            : Constant
Bit rate                                 : 128 kb/s
Channel(s)                               : 2 channels
Channel positions                        : Front: L R
Sampling rate                            : 48.0 kHz
Frame rate                               : 187.500 FPS (256 SPF)
Compression mode                         : Lossy
Stream size                              : 108 MiB (2%)
Service kind                             : Complete Main
Default                                  : Yes
Forced                                   : No

Text #1 & #2
Format                                   : UTF-8
Codec ID                                 : S_TEXT/UTF8
Codec ID/Info                            : UTF-8 Plain Text
Duration                                 : 1 h 51 min
Bit rate                                 : 40 b/s
Count of elements                        : 1158
Stream size                              : 32.9 KiB (0%)
Language                                 : English, Filipino
Default                                  : Yes, No
Forced                                   : Yes, No







Quote:

- 1080p WEBHD, 2.0 Audio & 2 Subtitles!
- Enjoy DUS & ICTV Exclusive Release!

In case of re-seed on any torrent, please pm.
If you share this torrent anywhere, give credits to LP1 @ DusIcTv.
Category:Other > Other
Lang:Unknown/NA
Total Size:4.88 GB
Info Hash:58ccf2b8ed948f3edabd0f79d81e2425940d4e67
Added By:LP1BWT
Date Added:03-05-2019 10:15:44
Views:56
Hits:18


Ratings:Not Yet Rated (Log in to rate it)

  


Tracker:
udp://tracker.pirateparty.gr:6969/announce

This Torrent also has backup trackers
URLSeedersLeechersCompleted
http://tracker.torrentyorg.pl:80/announce010
https://tracker.fastdownload.xyz:443/announce000
http://vps02.net.orel.ru:80/announce010


File List: 


Comments

NOCOMMENTS

Page Generated In 0.000000 secs.