[Login] or [Signup]

,
Search











Latest Posters
Kadaram Kondan.2019.1080p.AMZN.WeB.DL.H264.DDP.5.1.DusIcTv / Tamil - Movies
Ninu Veedani Needanu Nene.2019.1080p.AMZN.WeB.DL.H264.DDP.5.1.DusIcTv / Telugu - Movies
Nabab 2019 Bangla Movie Shakib Khan HDRip 1GB / Bangla - Movies
Devon Ke Dev... Mahadev (2011) Hindi - {Episodes 224 To 344 } - 720p WEB-DL - x264 - AAC 2.0 - Sun George / Bollywood - WebHD
The Avengers Earths Mightiest Heroes [2010-12] Complete S01 1080p Bluray x 264 Duel Aud [Hin DD 2.0 + Eng DDP 5.1] - Esub Reperza-Cinemaghar  / Hollywood - Anime, Cartoon
The Avengers Earths Mightiest Heroes [2010-12] Complete S01 720p Bluray x 264 Duel Aud [Hin DD 2.0 + Eng DDP 5.1] - Esub Reperza-Cinemaghar  / Hollywood - Anime, Cartoon

Torrent Details For "The Gathering (2003) 540p Indonesian WEB-DL DDP 2.0 MSub - DusIcTv"

The Gathering (2003) 540p Indonesian WEB-DL DDP 2.0 MSub - DusIcTv

Download this torrent -- Magnet Download

Health:
Seeds: 1
Leechers: 0
Completed:
Last Checked: 17-08-2019 00:11:30
External Torrent
UPDATE_STATS


Details
Name:The Gathering (2003) 540p Indonesian WEB-DL DDP 2.0 MSub - DusIcTv
Description:



The Gathering (2003) 540p Indonesian WEB-DL DDP 2.0 MSub - DusIcTv


General
Complete name                            : The Gathering (2003) 540p Indonesian WEB-DL DDP 2.0 MSub - DusIcTv.mkv
Format                                   : Matroska
Format version                           : Version 4 / Version 2
File size                                : 1 006 MiB
Duration                                 : 2 h 3 min
Overall bit rate mode                    : Variable
Overall bit rate                         : 1 135 kb/s
Encoded date                             : UTC 2019-05-03 09:21:32
Writing application                      : mkvmerge v32.0.0 ('Astral Progressions') 64-bit
Writing library                          : libebml v1.3.7 + libmatroska v1.5.0

Video
ID                                       : 1
Format                                   : AVC
Format/Info                              : Advanced Video Codec
Format profile                           : [email protected]
Format settings                          : CABAC / 4 Ref Frames
Format settings, CABAC                   : Yes
Format settings, RefFrames               : 4 frames
Codec ID                                 : V_MPEG4/ISO/AVC
Duration                                 : 2 h 3 min
Bit rate mode                            : Variable
Bit rate                                 : 1 005 kb/s
Maximum bit rate                         : 14.0 Mb/s
Width                                    : 960 pixels
Height                                   : 540 pixels
Display aspect ratio                     : 16:9
Frame rate mode                          : Constant
Frame rate                               : 25.000 FPS
Color space                              : YUV
Chroma subsampling                       : 4:2:0
Bit depth                                : 8 bits
Scan type                                : Progressive
Bits/(Pixel*Frame)                       : 0.078
Stream size                              : 891 MiB (89%)
Writing library                          : x264 core 148 r2715 7e75228
Default                                  : Yes
Forced                                   : No

Audio
ID                                       : 2
Format                                   : E-AC-3
Format/Info                              : Enhanced Audio Coding 3
Codec ID                                 : A_EAC3
Duration                                 : 2 h 3 min
Bit rate mode                            : Constant
Bit rate                                 : 128 kb/s
Channel(s)                               : 2 channels
Channel positions                        : Front: L R
Sampling rate                            : 48.0 kHz
Frame rate                               : 187.500 FPS (256 SPF)
Compression mode                         : Lossy
Stream size                              : 113 MiB (11%)
Title                                    : Indonesian
Language                                 : Indonesian
Service kind                             : Complete Main
Default                                  : Yes
Forced                                   : No

Text #1 & #2
Format                                   : UTF-8
Codec ID                                 : S_TEXT/UTF8
Codec ID/Info                            : UTF-8 Plain Text
Duration                                 : 2 h 3 min
Bit rate                                 : 71 b/s
Count of elements                        : 2156
Stream size                              : 65.0 KiB (0%)
Language                                 : English, Indonesian
Default                                  : Yes, No
Forced                                   : Yes, No







Quote:

- 540p WEBHD, 2.0 Audio & 2 Subtitles!
- Enjoy DUS & ICTV Exclusive Release!

In case of re-seed on any torrent, please pm.
If you share this torrent anywhere, give credits to LP1 @ DusIcTv.
Category:Other > Other
Lang:Unknown/NA
Total Size:1,005.87 MB
Info Hash:475b2719efc1432172ed5c0b96d3a5d551c39936
Added By:LP1BWT
Date Added:03-05-2019 10:17:52
Views:30
Hits:11


Ratings:Not Yet Rated (Log in to rate it)

  


Tracker:
udp://tracker.pirateparty.gr:6969/announce

This Torrent also has backup trackers
URLSeedersLeechersCompleted
http://tracker.torrentyorg.pl:80/announce000
https://tracker.fastdownload.xyz:443/announce000
http://vps02.net.orel.ru:80/announce000


File List: 


Comments

NOCOMMENTS

Page Generated In 0.000000 secs.