[Login] or [Signup]

,
Search











Latest Posters
Valiyavan (2019 - Valiyavan South Hindi Dubbed)  - 720p - HD Rip[x264 - AC3(5.1Ch)] - 1.4 GB  / Hindi Dubbed - Movies
Kaashi in Search of Ganga (2019) Hindi - 720p WEB-DL - x264 - AAC 2.0 - Sun George / Bollywood - WebHD
Bari Tar Bangla 2013 Bengali Movie DVDRip x264 aac / Bangla - Movies
Seetharama Kalyana (2019 - Seetharama Kalyana South  Hindi Dubbed) - 720p - HDTV Rip[x264 - AAC3(5.1Ch)] - 1.4 GB / Hindi Dubbed - Movies
Mukherjee Dar Bou (2019) Bengali Movie - 720p -  HDTV Rip[x264 - AC3(5.1Ch)] - 1.4 GB / Bangla - Movies
Kidnap 2019 Bengali Movie Ft Dev  720p HDRip 700MB x264 / Bangla - Movies

Torrent Details For "Abhay.[2019].Zee5.Originals.S01.E08.1080p.Untouched.Web-DL.x264.AAC.-.LHDm"

Abhay.[2019].Zee5.Originals.S01.E08.1080p.Untouched.Web-DL.x264.AAC.-.LHDm

Download this torrent -- Magnet Download

Health:
Seeds: 588,320
Leechers: 117,313
Completed: 113,484 
Last Checked: 01-07-2019 07:19:02
External Torrent
UPDATE_STATS


Details
Name:Abhay.[2019].Zee5.Originals.S01.E08.1080p.Untouched.Web-DL.x264.AAC.-.LHDm
Description:
Available - www.LatestHDmovies.ORg
Available - www.LatestHDmovies.ORg
Available - www.LatestHDmovies.ORg
Available - www.LatestHDmovies.ORg
Available - www.LatestHDmovies.ORg
Available - www.LatestHDmovies.ORg


General
Unique ID                   : 295670278954597221021017588650518840789 (0xDE70063E72FC4BE0A4353275429505D5)
Complete name               : C:\Users\Administrator\Downloads\Video\[LatestHDmovies.ORg]-Abhay [2019] Zee5 Originals S01 E08 1080p Untouched Web-DL x264 AAC (1).mkv
Format                      : Matroska
Format version              : Version 4
File size                   : 508 MiB
Duration                    : 32 min 42 s
Overall bit rate            : 2 172 kb/s
Movie name                  : All Episodes Available - www.LatestHDmovies.ORg
Encoded date                : UTC 2019-05-03 16:55:14
Writing application         : mkvmerge v32.0.0 ('Astral Progressions') 32-bit
Writing library             : libebml v1.3.7 + libmatroska v1.5.0
Attachments                 : Encoded By {Err_Or}.png

Video
ID                          : 1
Format                      : AVC
Format/Info                 : Advanced Video Codec
Format profile              : [email protected]
Format settings             : CABAC / 4 Ref Frames
Format settings, CABAC      : Yes
Format settings, ReFrames   : 4 frames
Format settings, GOP        : M=4, N=50
Codec ID                    : V_MPEG4/ISO/AVC
Duration                    : 32 min 42 s
Bit rate                    : 2 028 kb/s
Nominal bit rate            : 2 200 kb/s
Width                       : 1 920 pixels
Height                      : 1 080 pixels
Display aspect ratio        : 16:9
Frame rate mode             : Constant
Frame rate                  : 25.000 FPS
Color space                 : YUV
Chroma subsampling          : 4:2:0
Bit depth                   : 8 bits
Scan type                   : Progressive
Bits/(Pixel*Frame)          : 0.039
Stream size                 : 474 MiB (93%)
Title                       : LatestHDmovies.ORg
Writing library             : x264 core 152 r2854 e9a5903
Encoding settings           : cabac=1 / ref=3 / deblock=1:0:0 / analyse=0x3:0x113 / me=hex / subme=7 / psy=1 / psy_rd=1.00:0.00 / mixed_ref=1 / me_range=16 / chroma_me=1 / trellis=1 / 8x8dct=1 / cqm=0 / deadzone=21,11 / fast_pskip=1 / chroma_qp_offset=-2 / threads=34 / lookahead_threads=5 / sliced_threads=0 / nr=0 / decimate=1 / interlaced=0 / bluray_compat=0 / constrained_intra=0 / bframes=3 / b_pyramid=2 / b_adapt=1 / b_bias=0 / direct=1 / weightb=1 / open_gop=0 / weightp=2 / keyint=50 / keyint_min=26 / scenecut=0 / intra_refresh=0 / rc_lookahead=40 / rc=abr / mbtree=1 / bitrate=2200 / ratetol=1.0 / qcomp=0.60 / qpmin=0 / qpmax=69 / qpstep=4 / vbv_maxrate=2860 / vbv_bufsize=3300 / nal_hrd=none / filler=0 / ip_ratio=1.40 / aq=1:1.00
Default                     : Yes
Forced                      : No

Audio
ID                          : 2
Format                      : AAC LC
Format/Info                 : Advanced Audio Codec Low Complexity
Codec ID                    : A_AAC-2
Duration                    : 32 min 42 s
Bit rate                    : 129 kb/s
Channel(s)                  : 2 channels
Channel layout              : L R
Sampling rate               : 48.0 kHz
Frame rate                  : 46.875 FPS (1024 SPF)
Compression mode            : Lossy
Stream size                 : 30.3 MiB (6%)
Title                       : LatestHDmovies.ORg
Language                    : Hindi
Default                     : Yes
Forced                      : No





Category:18+ > Web Series
Lang:Hindi
Total Size:508.29 MB
Info Hash:33a6cc2ea1834f3ac5268cd509bf8f2a6d6a9475
Added By:LatestHDmovies
Date Added:03-05-2019 19:52:50
Views:374
Hits:44


Ratings:Not Yet Rated (Log in to rate it)


Tracker:
udp://tracker.pirateparty.gr:6969/announce

This Torrent also has backup trackers
URLSeedersLeechersCompleted
http://tracker.torrentyorg.pl:80/announce010
https://tracker.fastdownload.xyz:443/announce010
http://tracker.electro-torrent.pl:80/announce010
http://retracker.mgts.by:80/announce101
http://t.nyaatracker.com:80/announce000
https://bwt.pw/announce.php588,320117,275113,076
http://vps02.net.orel.ru:80/announce010
https://tracker.fastdownload.xyz:443/announce010
https://seeders-paradise.org:443/announce000
http://share.camoe.cn:8080/announce000
http://open.acgnxtracker.com:80/announce000


File List: 


Comments

NOCOMMENTS

Page Generated In 0.000000 secs.