[Login] or [Signup]

,
Search











Latest Posters
Valiyavan (2019 - Valiyavan South Hindi Dubbed)  - 720p - HD Rip[x264 - AC3(5.1Ch)] - 1.4 GB  / Hindi Dubbed - Movies
Kaashi in Search of Ganga (2019) Hindi - 720p WEB-DL - x264 - AAC 2.0 - Sun George / Bollywood - WebHD
Bari Tar Bangla 2013 Bengali Movie DVDRip x264 aac / Bangla - Movies
Seetharama Kalyana (2019 - Seetharama Kalyana South  Hindi Dubbed) - 720p - HDTV Rip[x264 - AAC3(5.1Ch)] - 1.4 GB / Hindi Dubbed - Movies
Mukherjee Dar Bou (2019) Bengali Movie - 720p -  HDTV Rip[x264 - AC3(5.1Ch)] - 1.4 GB / Bangla - Movies
Kidnap 2019 Bengali Movie Ft Dev  720p HDRip 700MB x264 / Bangla - Movies

Torrent Details For "Shikari.(2018).HDTV.UNTOUCHED.720p.Marathi.x264.AAC.-.LHDm"

Shikari.(2018).HDTV.UNTOUCHED.720p.Marathi.x264.AAC.-.LHDm

Download this torrent -- Magnet Download

Health:
Seeds: 63,084
Leechers: 139,369
Completed:
Last Checked: 19-07-2019 10:09:16
External Torrent
UPDATE_STATS


Details
Name:Shikari.(2018).HDTV.UNTOUCHED.720p.Marathi.x264.AAC.-.LHDm
Description:
availbale at - www.LatestHDmovies.ORg
availbale at - www.LatestHDmovies.ORg
availbale at - www.LatestHDmovies.ORg
availbale at - www.LatestHDmovies.ORg
availbale at - www.LatestHDmovies.ORg
availbale at - www.LatestHDmovies.ORg


General
Unique ID                   : 196316800780012907349126023714759679734 (0x93B13D92C64DC7273D957233FFBA9EF6)
Complete name               : C:\Users\Administrator\Downloads\New folder\[LatestHDmovies.ORg]-Shikari.(2018).HCensoredV.UNTOUCHED.720p.Marathi.x264.AAC.mkv
Format                      : Matroska
Format version              : Version 4
File size                   : 837 MiB
Duration                    : 1 h 38 min
Overall bit rate mode       : Variable
Overall bit rate            : 1 184 kb/s
Movie name                  : Official Releaser www.LatestHDmovies.ORg
Encoded date                : UTC 2019-05-05 13:21:26
Writing application         : mkvmerge v32.0.0 ('Astral Progressions') 32-bit
Writing library             : libebml v1.3.7 + libmatroska v1.5.0

Video
ID                          : 1
Format                      : AVC
Format/Info                 : Advanced Video Codec
Format profile              : [email protected]
Format settings             : CABAC / 4 Ref Frames
Format settings, CABAC      : Yes
Format settings, ReFrames   : 4 frames
Codec ID                    : V_MPEG4/ISO/AVC
Duration                    : 1 h 38 min
Bit rate mode               : Variable
Bit rate                    : 1 089 kb/s
Maximum bit rate            : 1 100 kb/s
Width                       : 1 280 pixels
Height                      : 720 pixels
Display aspect ratio        : 16:9
Frame rate mode             : Constant
Frame rate                  : 25.000 FPS
Standard                    : Component
Color space                 : YUV
Chroma subsampling          : 4:2:0
Bit depth                   : 8 bits
Scan type                   : Progressive
Bits/(Pixel*Frame)          : 0.047
Stream size                 : 770 MiB (92%)
Title                       : LatestHDmovies.ORg
Default                     : Yes
Forced                      : No
Color range                 : Limited
Color primaries             : BT.709
Transfer characteristics    : BT.709
Matrix coefficients         : BT.709

Audio
ID                          : 2
Format                      : AAC LC
Format/Info                 : Advanced Audio Codec Low Complexity
Codec ID                    : A_AAC-2
Duration                    : 1 h 38 min
Bit rate                    : 93.3 kb/s
Channel(s)                  : 2 channels
Channel layout              : L R
Sampling rate               : 48.0 kHz
Frame rate                  : 46.875 FPS (1024 SPF)
Compression mode            : Lossy
Delay relative to video     : 10 ms
Stream size                 : 66.0 MiB (8%)
Title                       : LatestHDmovies.ORg
Language                    : Marathi
Default                     : Yes
Forced                      : No

Text
ID                          : 3
Format                      : UTF-8
Codec ID                    : S_TEXT/UTF8
Codec ID/Info               : UTF-8 Plain Text
Duration                    : 1 h 2 min
Bit rate                    : 0 b/s
Count of elements           : 2
Stream size                 : 130 Bytes (0%)
Title                       : LatestHDmovies.ORg
Language                    : Marathi
Default                     : Yes
Forced                      : No










Category:Marathi > Movies
Lang:Marathi
Total Size:837.36 MB
Info Hash:5ef6da73c7beacb1ff1f7ea537eb0b8fa8fb19d5
Added By:LatestHDmovies
Date Added:05-05-2019 16:21:47
Views:204
Hits:38


Ratings:Not Yet Rated (Log in to rate it)


Tracker:
udp://tracker.pirateparty.gr:6969/announce

This Torrent also has backup trackers
URLSeedersLeechersCompleted
http://tracker.torrentyorg.pl:80/announce010
https://tracker.fastdownload.xyz:443/announce000
http://tracker.electro-torrent.pl:80/announce010
http://retracker.mgts.by:80/announce000
http://t.nyaatracker.com:80/announce000
https://bwt.pw/announce.php63,084139,3690
http://vps02.net.orel.ru:80/announce010
https://tracker.fastdownload.xyz:443/announce000
https://seeders-paradise.org:443/announce000
http://share.camoe.cn:8080/announce000
http://open.acgnxtracker.com:80/announce000


File List: 


Comments

<< Previous      Next >>
1 - 1

[Report] Posted: 05-05-2019 at 16:27:27
Cinemaghar



Uploaded: 0.00 B
Downloaded: 0.00 B
Ratio: ---

:love  :love  :)  :)
~Bong

1 - 1
<< Previous      Next >>


Page Generated In 0.000000 secs.