[Login] or [Signup]

,
Search











Latest Posters
Kadaram Kondan.2019.1080p.AMZN.WeB.DL.H264.DDP.5.1.DusIcTv / Tamil - Movies
Ninu Veedani Needanu Nene.2019.1080p.AMZN.WeB.DL.H264.DDP.5.1.DusIcTv / Telugu - Movies
Nabab 2019 Bangla Movie Shakib Khan HDRip 1GB / Bangla - Movies
Devon Ke Dev... Mahadev (2011) Hindi - {Episodes 224 To 344 } - 720p WEB-DL - x264 - AAC 2.0 - Sun George / Bollywood - WebHD
The Avengers Earths Mightiest Heroes [2010-12] Complete S01 1080p Bluray x 264 Duel Aud [Hin DD 2.0 + Eng DDP 5.1] - Esub Reperza-Cinemaghar  / Hollywood - Anime, Cartoon
The Avengers Earths Mightiest Heroes [2010-12] Complete S01 720p Bluray x 264 Duel Aud [Hin DD 2.0 + Eng DDP 5.1] - Esub Reperza-Cinemaghar  / Hollywood - Anime, Cartoon

Torrent Details For "Mystified [2019] Iflix Org Filipino Movie 1080p Webrip x 264-10bit - Esub By Cinemaghar xc..."

Mystified [2019] Iflix Org Filipino Movie 1080p Webrip x 264-10bit - Esub By Cinemaghar xc...

Download this torrent -- Magnet Download

Health:
Seeds: 5
Leechers: 17
Completed: 26 
Last Checked: 16-08-2019 01:42:34
External Torrent
UPDATE_STATS


Details
Name:Mystified [2019] Iflix Org Filipino Movie 1080p Webrip x 264-10bit - Esub By Cinemaghar xc...
Description:
[center]Mystified [2019] Iflix Org Filipino Movie 1080p Webrip x 264-10bit - Esub By Cinemaghar xclusive

Xclusive ..... **1st on net**





Xclusive ..... **1st on net**

Audio Filipino + English language mixed up

1st tym IFLIX Made a Org. Movie


- By Team Cinemaghar




General
Unique ID                                : 278938917639884604402145256764153367744 (0xD1D9AE7121DE48A2ADB335EA4D1D8CC0)
Complete name                            : H:\Mystified [2019] Iflix Org Filipino Movie 1080p Webrip x 264-10bit - Esub By Cinemaghar xclusive\Mystified [2019] Iflix Org Filipino Movie 1080p Webrip x 264-10bit - Esub By Cinemaghar xclusive .mkv
Format                                   : Matroska
Format version                           : Version 4
File size                                : 2.02 GiB
Duration                                 : 1 h 26 min
Overall bit rate                         : 3 353 kb/s
Movie name                               : Mystified [2019] Iflix Org Filipino Movie 1080p Webrip x 264-10bit - Esub By Cinemaghar xclusive
Encoded date                             : UTC 2019-05-11 23:06:33
Writing application                      : mkvmerge v32.0.0 ('Astral Progressions') 64-bit
Writing library                          : libebml v1.3.7 + libmatroska v1.5.0 / Lavf58.20.100

Video
ID                                       : 1
Format                                   : AVC
Format/Info                              : Advanced Video Codec
Format profile                           : High [email protected]
Format settings                          : CABAC / 4 Ref Frames
Format settings, CABAC                   : Yes
Format settings, Reference frames        : 4 frames
Codec ID                                 : V_MPEG4/ISO/AVC
Duration                                 : 1 h 26 min
Bit rate                                 : 3 000 kb/s
Width                                    : 1 920 pixels
Height                                   : 1 080 pixels
Display aspect ratio                     : 16:9
Frame rate mode                          : Variable
Frame rate                               : 21.705 FPS
Color space                              : YUV
Chroma subsampling                       : 4:2:0
Bit depth                                : 10 bits
Scan type                                : Progressive
Bits/(Pixel*Frame)                       : 0.067
Stream size                              : 1.79 GiB (88%)
Title                                    : Cinemaghar
Writing library                          : x264 core 157 r2935 545de2f
Encoding settings                        : cabac=1 / ref=4 / deblock=1:0:0 / analyse=0x3:0x113 / me=hex / subme=8 / psy=1 / psy_rd=1.00:0.00 / mixed_ref=1 / me_range=16 / chroma_me=1 / trellis=2 / 8x8dct=1 / cqm=0 / deadzone=21,11 / fast_pskip=1 / chroma_qp_offset=-2 / threads=6 / lookahead_threads=1 / sliced_threads=0 / nr=0 / decimate=1 / interlaced=0 / bluray_compat=0 / constrained_intra=0 / bframes=3 / b_pyramid=2 / b_adapt=1 / b_bias=0 / direct=3 / weightb=1 / open_gop=0 / weightp=2 / keyint=220 / keyint_min=22 / scenecut=40 / intra_refresh=0 / rc_lookahead=50 / rc=abr / mbtree=1 / bitrate=3000 / ratetol=1.0 / qcomp=0.60 / qpmin=0 / qpmax=81 / qpstep=4 / vbv_maxrate=60000 / vbv_bufsize=75000 / nal_hrd=none / filler=0 / ip_ratio=1.40 / aq=1:1.00
Default                                  : Yes
Forced                                   : No
Color range                              : Limited
Color primaries                          : BT.709
Transfer characteristics                 : BT.709
Matrix coefficients                      : BT.709

Audio
ID                                       : 2
Format                                   : AC-3
Format/Info                              : Audio Coding 3
Commercial name                          : Dolby Digital
Codec ID                                 : A_AC3
Duration                                 : 1 h 26 min
Bit rate mode                            : Constant
Bit rate                                 : 384 kb/s
Channel(s)                               : 2 channels
Channel layout                           : L R
Sampling rate                            : 48.0 kHz
Frame rate                               : 31.250 FPS (1536 SPF)
Bit depth                                : 16 bits
Compression mode                         : Lossy
Delay relative to video                  : -5 ms
Stream size                              : 237 MiB (11%)
Title                                    : Cinemaghar
Language                                 : phi
Service kind                             : Complete Main
Default                                  : Yes
Forced                                   : Yes


[img] [/img]



[/center]
Category:Other > Other
Lang:Unknown/NA
Total Size:2.02 GB
Info Hash:984035728a2dcc34217fcc8c66cbcf05143d192f
Added By:Cinemaghar
Date Added:11-05-2019 21:23:25
Views:97
Hits:12


Ratings:Not Yet Rated (Log in to rate it)

  


Tracker:
udp://tracker.pirateparty.gr:6969/announce

This Torrent also has backup trackers
URLSeedersLeechersCompleted
http://tracker.torrentyorg.pl:80/announce112
https://tracker.fastdownload.xyz:443/announce000
http://vps02.net.orel.ru:80/announce362


File List: 


Comments

NOCOMMENTS

Page Generated In 0.000000 secs.