[Login] or [Signup]

,
Login
Username:
Password:
[Signup]
[Recover Account]

Latest Posters
Aata - The Game of Fear (2019 - Ouija Game Never Ends  Hindi Dubbed) - 720p - HD Rip[x264 - AC3(5.1Ch)] - 1 GB / South-Dubbed - Movies
Natasaarvabhowma (2019) Kannada - 720p - HDRIP - DD2.0 - x264 - 1.2GB / Kannada - Movies
Yaaran.De.Yaar.2017.Punjabi.576.AMZN.WeB.DL.H264.DDP.2.0.Dus.IcTv.(BwTorrents) / Punjabi - Movies
The Accidental Prime Minister [2019] Hindi Webhd 1080p x 265 (hevc) - 10Bit DD 2.0 - Esub - [Cinemaghar]  / Bollywood - WebRips
Junglee.(2019).Hindi.720p.HDRip.x264.AAC.ESubs-=!MrSky!=- / Bollywood - WebRips
Aisa.Yeh.Jahaan.2015.Hindi.272p.AMZN.WeB.DL.H264.AAC.2.0.Dus.IcTv.(bwtorrents) / Bollywood - WebHD



Torrent Details For "Lahoo Ke Do Rang 1997 720p HD-Rip X264 AC-3 [XMR]"

Lahoo Ke Do Rang 1997 720p HD-Rip X264 AC-3 [XMR]

Download this torrent -- Magnet Download

Health:
Seeds: 0
Leechers: 5
Completed:
Last Checked: 17-05-2019 09:58:00
External Torrent
UPDATE_STATS


Details
Name:Lahoo Ke Do Rang 1997 720p HD-Rip X264 AC-3 [XMR]
Description:
Lahoo Ke Do Rang 1997 720p HD-Rip X264 AC-3 [XMR]



Format                      : Matroska
Format version              : Version 2
File size                   : 1.50 GiB
Duration                    : 2 h 26 min
Overall bit rate            : 1 466 kb/s
Encoded date                : UTC 2019-05-13 14:51:05
Writing application         : mkvmerge v29.0.0 ('Like It Or Not') 32-bit
Writing library             : libebml v1.3.6 + libmatroska v1.4.9

Video
ID                          : 1
Format                      : AVC
Format/Info                 : Advanced Video Codec
Format profile              : [email protected]
Format settings             : CABAC / 4 Ref Frames
Format settings, CABAC      : Yes
Format settings, ReFrames   : 4 frames
Codec ID                    : V_MPEG4/ISO/AVC
Duration                    : 2 h 26 min
Bit rate                    : 1 331 kb/s
Width                       : 1 280 pixels
Height                      : 544 pixels
Display aspect ratio        : 2.35:1
Frame rate mode             : Constant
Frame rate                  : 25.000 FPS
Color space                 : YUV
Chroma subsampling          : 4:2:0
Bit depth                   : 8 bits
Scan type                   : Progressive
Bits/(Pixel*Frame)          : 0.076
Stream size                 : 1.37 GiB (91%)

Audio
ID                          : 2
Format                      : AC-3
Format/Info                 : Audio Coding 3
Commercial name             : Dolby Digital
Codec ID                    : A_AC3
Duration                    : 2 h 26 min
Bit rate mode               : Constant
Bit rate                    : 128 kb/s
Channel(s)                  : 2 channels
Channel layout              : L R
Sampling rate               : 44.1 kHz
Frame rate                  : 28.711 FPS (1536 SPF)
Bit depth                   : 16 bits
Compression mode            : Lossy
Stream size                 : 134 MiB (9%)
Service kind                : Complete Main
Default                     : Yes
Forced                      : No

Category:Bollywood > WebRips
Lang:Hindi
Total Size:1.50 GB
Info Hash:4fb1d93f2cb72682245298bf39e7a75ee2ba4c1d
Added By:taimoordar0022
Date Added:14-05-2019 02:29:49
Views:121
Hits:31


Ratings:Not Yet Rated (Log in to rate it)

  


Tracker:
udp://tracker.pirateparty.gr:6969/announce

This Torrent also has backup trackers
URLSeedersLeechersCompleted
http://tracker.torrentyorg.pl:80/announce031
https://tracker.fastdownload.xyz:443/announce010
http://vps02.net.orel.ru:80/announce010


File List: 


Comments

NOCOMMENTS

Search











Most Active
Halla.Gulla.(2015)...
- [S: 4,294,967,295 - L: 4,294,967,295]

Abhay.[2019].Zee5....
- [S: 588,320 - L: 117,159]

Shikari.(2018).HDT...
- [S: 63,084 - L: 139,328]

Gully Boy.(2019).7...
- [S: 1,760 - L: 16,129]

The Protector S02 ...
- [S: 676 - L: 12,036]

Gully Boy.(2019).1...
- [S: 2,421 - L: 9,504]

Fuh se Fantasy [20...
- [S: 4,976 - L: 6,124]

Gully Boy (2019) H...
- [S: 6,186 - L: 3,461]

The Tashkent Files...
- [S: 3,774 - L: 3,226]

Dirty Model.2015.H...
- [S: 2,477 - L: 3,991]


Page Generated In 0.000000 secs.