[Login] or [Signup]

,
Search











Latest Posters
Devon Ke Dev... Mahadev (2011) Hindi - {Episodes 224 To 344 } - 720p WEB-DL - x264 - AAC 2.0 - Sun George / Bollywood - WebHD
The Avengers Earths Mightiest Heroes [2010-12] Complete S01 1080p Bluray x 264 Duel Aud [Hin DD 2.0 + Eng DDP 5.1] - Esub Reperza-Cinemaghar  / Hollywood - Anime, Cartoon
The Avengers Earths Mightiest Heroes [2010-12] Complete S01 720p Bluray x 264 Duel Aud [Hin DD 2.0 + Eng DDP 5.1] - Esub Reperza-Cinemaghar  / Hollywood - Anime, Cartoon
Sweater (2019) Bengali Movie 720p HDRip 800MB / Bangla - Movies
Garuda (2019) Hindi Dubbed Movie HDRip 800MB / Hindi Dubbed - Movies
Ek Ultimate Chaalbaaz 2019 Hindi Dubbed Movies HDRip 800MB / Hindi Dubbed - Movies

Torrent Details For "Shivaay (2016) 720p HQ WEBRip Hindi x264 AAC MSubs.-.LHDm [Bwt]"

Shivaay (2016) 720p HQ WEBRip Hindi x264 AAC MSubs.-.LHDm [Bwt]

Download this torrent -- Magnet Download

Health:
Seeds: 9
Leechers: 0
Completed:
Last Checked: 16-05-2019 20:48:36
External Torrent
UPDATE_STATS


Details
Name:Shivaay (2016) 720p HQ WEBRip Hindi x264 AAC MSubs.-.LHDm [Bwt]
Description:

.
..
.
.
.
https://Latesthdmovies.club/shivaay-2016/
.
.
.
.
General
Unique ID                   : 264217966161012875935552591033643059903 (0xC6C6877F6205C4CC3EA9A76F49784ABF)
Complete name               : C:\Users\Administrator\Downloads\Video\[LatestHDmovies.Club]-Shivaay 2016 720p HQ WEBRip Hindi x264 AAC MSubs.mkv
Format                      : Matroska
Format version              : Version 4
File size                   : 1.26 GiB
Duration                    : 2 h 33 min
Overall bit rate            : 1 169 kb/s
Movie name                  : Encoded By LatestHDmovies.Club
Encoded date                : UTC 2019-05-13 15:31:32
Writing application         : mkvmerge v32.0.0 ('Astral Progressions') 32-bit
Writing library             : libebml v1.3.7 + libmatroska v1.5.0

Video
ID                          : 1
Format                      : AVC
Format/Info                 : Advanced Video Codec
Format profile              : [email protected]
Format settings             : CABAC / 4 Ref Frames
Format settings, CABAC      : Yes
Format settings, ReFrames   : 4 frames
Codec ID                    : V_MPEG4/ISO/AVC
Duration                    : 2 h 33 min
Bit rate                    : 1 086 kb/s
Width                       : 1 280 pixels
Height                      : 544 pixels
Display aspect ratio        : 2.35:1
Frame rate mode             : Constant
Frame rate                  : 25.000 FPS
Color space                 : YUV
Chroma subsampling          : 4:2:0
Bit depth                   : 8 bits
Scan type                   : Progressive
Bits/(Pixel*Frame)          : 0.062
Stream size                 : 1.17 GiB (93%)
Title                       : LatestHDmovies.Club
Writing library             : x264 core 157
Encoding settings           : cabac=1 / ref=1 / deblock=1:0:0 / analyse=0x3:0x3 / me=dia / subme=1 / psy=1 / psy_rd=1.00:0.00 / mixed_ref=0 / me_range=16 / chroma_me=1 / trellis=0 / 8x8dct=1 / cqm=0 / deadzone=21,11 / fast_pskip=1 / chroma_qp_offset=0 / threads=12 / lookahead_threads=2 / sliced_threads=0 / nr=0 / decimate=1 / interlaced=0 / bluray_compat=0 / constrained_intra=0 / bframes=3 / b_pyramid=2 / b_adapt=1 / b_bias=0 / direct=1 / weightb=1 / open_gop=0 / weightp=1 / keyint=250 / keyint_min=25 / scenecut=40 / intra_refresh=0 / rc=abr / mbtree=0 / bitrate=1086 / ratetol=1.0 / qcomp=0.60 / qpmin=0 / qpmax=69 / qpstep=4 / ip_ratio=1.40 / pb_ratio=1.30 / aq=1:1.00
Language                    : Hindi
Default                     : Yes
Forced                      : No

Audio
ID                          : 2
Format                      : AAC LC
Format/Info                 : Advanced Audio Codec Low Complexity
Codec ID                    : A_AAC-2
Duration                    : 2 h 33 min
Bit rate                    : 80.0 kb/s
Channel(s)                  : 1 channel
Channel layout              : C
Sampling rate               : 44.1 kHz
Frame rate                  : 43.066 FPS (1024 SPF)
Compression mode            : Lossy
Delay relative to video     : -46 ms
Stream size                 : 88.0 MiB (7%)
Title                       : LatestHDmovies.Club
Language                    : Hindi
Default                     : Yes
Forced                      : No

Text #1
ID                          : 3
Format                      : UTF-8
Codec ID                    : S_TEXT/UTF8
Codec ID/Info               : UTF-8 Plain Text
Duration                    : 2 h 26 min
Bit rate                    : 31 b/s
Count of elements           : 1038
Stream size                 : 34.2 KiB (0%)
Title                       : LatestHDmovies.Club
Language                    : English
Default                     : Yes
Forced                      : Yes

Text #2
ID                          : 4
Format                      : UTF-8
Codec ID                    : S_TEXT/UTF8
Codec ID/Info               : UTF-8 Plain Text
Duration                    : 2 h 27 min
Bit rate                    : 25 b/s
Count of elements           : 957
Stream size                 : 27.4 KiB (0%)
Title                       : LatestHDmovies.Club
Language                    : Spanish
Default                     : No
Forced                      : No

Text #3
ID                          : 5
Format                      : UTF-8
Codec ID                    : S_TEXT/UTF8
Codec ID/Info               : UTF-8 Plain Text
Duration                    : 2 h 27 min
Bit rate                    : 27 b/s
Count of elements           : 961
Stream size                 : 29.8 KiB (0%)
Title                       : LatestHDmovies.Club
Language                    : Spanish
Default                     : No
Forced                      : No

Text #4
ID                          : 6
Format                      : UTF-8
Codec ID                    : S_TEXT/UTF8
Codec ID/Info               : UTF-8 Plain Text
Duration                    : 2 h 27 min
Bit rate                    : 28 b/s
Count of elements           : 957
Stream size                 : 30.3 KiB (0%)
Title                       : LatestHDmovies.Club
Language                    : French
Default                     : No
Forced                      : No

Text #5
ID                          : 7
Format                      : UTF-8
Codec ID                    : S_TEXT/UTF8
Codec ID/Info               : UTF-8 Plain Text
Duration                    : 2 h 27 min
Bit rate                    : 25 b/s
Count of elements           : 941
Stream size                 : 27.4 KiB (0%)
Title                       : LatestHDmovies.Club
Language                    : Italian
Default                     : No
Forced                      : No

Text #6
ID                          : 8
Format                      : UTF-8
Codec ID                    : S_TEXT/UTF8
Codec ID/Info               : UTF-8 Plain Text
Duration                    : 2 h 27 min
Bit rate                    : 27 b/s
Count of elements           : 958
Stream size                 : 29.3 KiB (0%)
Title                       : LatestHDmovies.Club
Language                    : Portuguese
Default                     : No
Forced                      : No

Menu
02:30:27.000                : en:End Credits


.







Category:Bollywood > WebRips
Lang:Hindi
Total Size:1.26 GB
Info Hash:ce0ef40cc5498c2e96096177c6eaa303da28716f
Added By:LatestHDmovies
Date Added:14-05-2019 03:54:21
Views:59
Hits:9


Ratings:Not Yet Rated (Log in to rate it)


Tracker:
udp://tracker.pirateparty.gr:6969/announce

This Torrent also has backup trackers
URLSeedersLeechersCompleted
http://tracker.torrentyorg.pl:80/announce101
https://tracker.fastdownload.xyz:443/announce100
http://vps02.net.orel.ru:80/announce102


File List: 


Comments

NOCOMMENTS

Page Generated In 0.000000 secs.