[Login] or [Signup]

,
Login
Username:
Password:
[Signup]
[Recover Account]

Latest Posters
Kavacha (2019) Kannada 720p HD AVC Untouched x264  / Kannada - Movies
Firangi.2017.1080p.HQ.HDTV.x264.AAC.-.LHDm [Super Seeding] / Bollywood - WebHD
Skyfire [2019] Zee5 Org. Hindi series S01 - [Ep - 08] 1080p webdl x 264 AVC AAC [Cinemaghar] - Xclusive  / Bollywood - TV Shows
Savyasachi 2019 Hindi Dubbed 720p untouched x264 Exclusive [MnD] / Hindi Dubbed - Movies
Ezra (2019 - Ezra South Hindi Dubbed) - 720p -  HD Rip[x264 - AC3(5.1Ch)] - 1.4 GB   / South-Dubbed - Movies
Junglee (2019) Hindi Movie - 720p - HDRip [x264 - AAC3(5.1Ch)] - 1 GB  / Bollywood - WebHD



Torrent Details For "Baadshah (1999) 720p HQ HDRip Hindi x264 AAC.-.LHDm [Bwt]"

Baadshah (1999) 720p HQ HDRip Hindi x264 AAC.-.LHDm [Bwt]

Download this torrent -- Magnet Download

Health:
Seeds: 0
Leechers: 3
Completed: 12 
Last Checked: 25-05-2019 05:26:43
External Torrent
UPDATE_STATS


Details
Name:Baadshah (1999) 720p HQ HDRip Hindi x264 AAC.-.LHDm [Bwt]
Description:




https://Latesthdmovies.club/baadshah-1999/




General
Unique ID                   : 288204385789504128516469696599610687077 (0xD8D2254A99E7212B160BD26C9190FE65)
Complete name               : C:\Users\Administrator\Downloads\Video\[LatestHDmovies.Club]-Baadshah 1999 720p HQ HDRip Hindi x264 AAC.mkv
Format                      : Matroska
Format version              : Version 4
File size                   : 1.29 GiB
Duration                    : 2 h 47 min
Overall bit rate            : 1 103 kb/s
Movie name                  : Encoded By LatestHDmovies.Club
Encoded date                : UTC 2019-05-14 00:16:43
Writing application         : mkvmerge v32.0.0 ('Astral Progressions') 32-bit
Writing library             : libebml v1.3.7 + libmatroska v1.5.0

Video
ID                          : 1
Format                      : AVC
Format/Info                 : Advanced Video Codec
Format profile              : [email protected]
Format settings             : CABAC / 4 Ref Frames
Format settings, CABAC      : Yes
Format settings, ReFrames   : 4 frames
Codec ID                    : V_MPEG4/ISO/AVC
Duration                    : 2 h 47 min
Bit rate                    : 1 018 kb/s
Width                       : 1 280 pixels
Height                      : 544 pixels
Display aspect ratio        : 2.35:1
Frame rate mode             : Constant
Frame rate                  : 25.000 FPS
Color space                 : YUV
Chroma subsampling          : 4:2:0
Bit depth                   : 8 bits
Scan type                   : Progressive
Bits/(Pixel*Frame)          : 0.058
Stream size                 : 1.19 GiB (93%)
Title                       : LatestHDmovies.Club
Writing library             : x264 core 157
Encoding settings           : cabac=1 / ref=1 / deblock=1:0:0 / analyse=0x3:0x3 / me=dia / subme=1 / psy=1 / psy_rd=1.00:0.00 / mixed_ref=0 / me_range=16 / chroma_me=1 / trellis=0 / 8x8dct=1 / cqm=0 / deadzone=21,11 / fast_pskip=1 / chroma_qp_offset=0 / threads=12 / lookahead_threads=2 / sliced_threads=0 / nr=0 / decimate=1 / interlaced=0 / bluray_compat=0 / constrained_intra=0 / bframes=3 / b_pyramid=2 / b_adapt=1 / b_bias=0 / direct=1 / weightb=1 / open_gop=0 / weightp=1 / keyint=250 / keyint_min=25 / scenecut=40 / intra_refresh=0 / rc=abr / mbtree=0 / bitrate=1018 / ratetol=1.0 / qcomp=0.60 / qpmin=0 / qpmax=69 / qpstep=4 / ip_ratio=1.40 / pb_ratio=1.30 / aq=1:1.00
Default                     : Yes
Forced                      : No

Audio
ID                          : 2
Format                      : AAC LC
Format/Info                 : Advanced Audio Codec Low Complexity
Codec ID                    : A_AAC-2
Duration                    : 2 h 47 min
Bit rate                    : 80.0 kb/s
Channel(s)                  : 1 channel
Channel layout              : C
Sampling rate               : 44.1 kHz
Frame rate                  : 43.066 FPS (1024 SPF)
Compression mode            : Lossy
Delay relative to video     : -46 ms
Stream size                 : 95.9 MiB (7%)
Title                       : LatestHDmovies.Club
Language                    : English
Default                     : Yes
Forced                      : No










Category:Bollywood > WebRips
Lang:Hindi
Total Size:1.29 GB
Info Hash:62eb88be95b7fb0c227f1be80487fa5fee305e3f
Added By:LatestHDmovies
Date Added:14-05-2019 04:13:44
Views:96
Hits:14


Ratings:Not Yet Rated (Log in to rate it)


Tracker:
udp://tracker.pirateparty.gr:6969/announce

This Torrent also has backup trackers
URLSeedersLeechersCompleted
http://tracker.torrentyorg.pl:80/announce000
https://tracker.fastdownload.xyz:443/announce010
http://vps02.net.orel.ru:80/announce006


File List: 


Comments

NOCOMMENTS

Search











Most Active
Halla.Gulla.(2015)...
- [S: 4,294,967,295 - L: 4,294,967,295]

Abhay.[2019].Zee5....
- [S: 588,320 - L: 117,159]

Shikari.(2018).HDT...
- [S: 63,084 - L: 139,328]

Gully Boy.(2019).7...
- [S: 1,760 - L: 16,129]

The Protector S02 ...
- [S: 676 - L: 12,036]

Gully Boy.(2019).1...
- [S: 2,421 - L: 9,504]

Fuh se Fantasy [20...
- [S: 4,976 - L: 6,124]

Gully Boy (2019) H...
- [S: 6,186 - L: 3,461]

The Tashkent Files...
- [S: 3,774 - L: 3,226]

Dirty Model.2015.H...
- [S: 2,477 - L: 3,991]


Page Generated In 0.000000 secs.