[Login] or [Signup]

,
Login
Username:
Password:
[Signup]
[Recover Account]

Latest Posters
Kavacha (2019) Kannada 720p HD AVC Untouched x264  / Kannada - Movies
Firangi.2017.1080p.HQ.HDTV.x264.AAC.-.LHDm [Super Seeding] / Bollywood - WebHD
Skyfire [2019] Zee5 Org. Hindi series S01 - [Ep - 08] 1080p webdl x 264 AVC AAC [Cinemaghar] - Xclusive  / Bollywood - TV Shows
Savyasachi 2019 Hindi Dubbed 720p untouched x264 Exclusive [MnD] / Hindi Dubbed - Movies
Ezra (2019 - Ezra South Hindi Dubbed) - 720p -  HD Rip[x264 - AC3(5.1Ch)] - 1.4 GB   / South-Dubbed - Movies
Junglee (2019) Hindi Movie - 720p - HDRip [x264 - AAC3(5.1Ch)] - 1 GB  / Bollywood - WebHD



Torrent Details For "Bollywood Buzzinga [2019] MX. ORG. S01 - [EP01-04] 1080P Untouched Webdl x 264 AVC AAC[Cin..."

Bollywood Buzzinga [2019] MX. ORG. S01 - [EP01-04] 1080P Untouched Webdl x 264 AVC AAC[Cin...

Download this torrent -- Magnet Download

Health:
Seeds: 9
Leechers: 8
Completed: 10 
Last Checked: 15-05-2019 00:36:22
External Torrent
UPDATE_STATS


Details
Name:Bollywood Buzzinga [2019] MX. ORG. S01 - [EP01-04] 1080P Untouched Webdl x 264 AVC AAC[Cin...
Description:
[center]Bollywood Buzzinga [2019] MX. ORG. S01 - [EP01-04] 1080P Untouched Webdl x 264 AVC AAC[Cinemaghar] - Xclusive





....Xclusive ...

- By Team Cinemaghar




General
Complete name                            : H:\Bollywood Buzzinga [2019] MX. ORG. S01 - [EP01-04] 1080P Untouched Webdl x 264 AVC AAC[Cinemaghar] - Xclusive\S01_EP01[Cinemaghar] .mp4
Format                                   : MPEG-4
Format profile                           : Base Media
Codec ID                                 : isom (isom/iso2/avc1/mp41)
File size                                : 1.69 GiB
Duration                                 : 54 min 35 s
Overall bit rate                         : 4 427 kb/s
Writing application                      : Lavf58.9.100

Video
ID                                       : 1
Format                                   : AVC
Format/Info                              : Advanced Video Codec
Format profile                           : [email protected]
Format settings                          : 1 Ref Frames
Format settings, CABAC                   : No
Format settings, Reference frames        : 1 frame
Format settings, GOP                     : M=1, N=75
Codec ID                                 : avc1
Codec ID/Info                            : Advanced Video Coding
Duration                                 : 54 min 35 s
Bit rate                                 : 4 359 kb/s
Nominal bit rate                         : 10.4 Mb/s
Width                                    : 1 920 pixels
Height                                   : 1 080 pixels
Display aspect ratio                     : 16:9
Frame rate mode                          : Constant
Frame rate                               : 25.000 FPS
Color space                              : YUV
Chroma subsampling                       : 4:2:0
Bit depth                                : 8 bits
Scan type                                : Progressive
Bits/(Pixel*Frame)                       : 0.084
Stream size                              : 1.66 GiB (98%)
Writing library                          : x264 core 152 r19 ba24899
Encoding settings                        : cabac=0 / ref=1 / deblock=1:0:0 / analyse=0x1:0x111 / me=hex / subme=7 / psy=1 / psy_rd=1.00:0.00 / mixed_ref=0 / me_range=16 / chroma_me=1 / trellis=1 / 8x8dct=0 / cqm=0 / deadzone=21,11 / fast_pskip=1 / chroma_qp_offset=-2 / threads=3 / lookahead_threads=1 / sliced_threads=0 / nr=0 / decimate=1 / interlaced=0 / bluray_compat=0 / constrained_intra=0 / bframes=0 / weightp=0 / keyint=75 / keyint_min=38 / scenecut=0 / intra_refresh=0 / rc_lookahead=40 / rc=abr / mbtree=1 / bitrate=10394 / ratetol=1.0 / qcomp=0.60 / qpmin=0 / qpmax=69 / qpstep=4 / ip_ratio=1.40 / aq=1:1.00
Language                                 : English
Codec configuration box                  : avcC

Audio
ID                                       : 2
Format                                   : AAC LC
Format/Info                              : Advanced Audio Codec Low Complexity
Codec ID                                 : mp4a-40-2
Duration                                 : 54 min 35 s
Bit rate mode                            : Constant
Bit rate                                 : 64.3 kb/s
Channel(s)                               : 2 channels
Channel layout                           : L R
Sampling rate                            : 48.0 kHz
Frame rate                               : 46.875 FPS (1024 SPF)
Compression mode                         : Lossy
Stream size                              : 25.1 MiB (1%)
Default                                  : Yes
Alternate group                          : 1


[img] [/img]


[/center]
Category:Bollywood > TV Shows
Lang:Hindi
Total Size:6.10 GB
Info Hash:ee20ae2138179dda867842f90ddd359422d8eeac
Added By:Cinemaghar
Date Added:14-05-2019 15:09:23
Views:119
Hits:10


Ratings:Not Yet Rated (Log in to rate it)

  


Tracker:
udp://tracker.pirateparty.gr:6969/announce

This Torrent also has backup trackers
URLSeedersLeechersCompleted
http://tracker.torrentyorg.pl:80/announce121
https://tracker.fastdownload.xyz:443/announce100
http://vps02.net.orel.ru:80/announce103


File List: 


Comments

<< Previous      Next >>
1 - 2

[Report] Posted: 14-05-2019 at 15:24:28
SHADNAN



Uploaded: 997.27 MB
Downloaded: 1.18 GB
Ratio: 0.82

:)  :love

[Report] Posted: 14-05-2019 at 16:06:18
Bwtorrent



Uploaded: 0.00 B
Downloaded: 0.00 B
Ratio: ---

:love

1 - 2
<< Previous      Next >>


Search











Most Active
Halla.Gulla.(2015)...
- [S: 4,294,967,295 - L: 4,294,967,295]

Abhay.[2019].Zee5....
- [S: 588,320 - L: 117,159]

Shikari.(2018).HDT...
- [S: 63,084 - L: 139,328]

Gully Boy.(2019).7...
- [S: 1,760 - L: 16,129]

The Protector S02 ...
- [S: 676 - L: 12,036]

Gully Boy.(2019).1...
- [S: 2,421 - L: 9,504]

Fuh se Fantasy [20...
- [S: 4,976 - L: 6,124]

Gully Boy (2019) H...
- [S: 6,186 - L: 3,461]

The Tashkent Files...
- [S: 3,774 - L: 3,226]

Dirty Model.2015.H...
- [S: 2,477 - L: 3,991]


Page Generated In 0.000000 secs.