[Login] or [Signup]

,
Login
Username:
Password:
[Signup]
[Recover Account]

Latest Posters
Aata - The Game of Fear (2019 - Ouija Game Never Ends  Hindi Dubbed) - 720p - HD Rip[x264 - AC3(5.1Ch)] - 1 GB / South-Dubbed - Movies
Natasaarvabhowma (2019) Kannada - 720p - HDRIP - DD2.0 - x264 - 1.2GB / Kannada - Movies
Yaaran.De.Yaar.2017.Punjabi.576.AMZN.WeB.DL.H264.DDP.2.0.Dus.IcTv.(BwTorrents) / Punjabi - Movies
The Accidental Prime Minister [2019] Hindi Webhd 1080p x 265 (hevc) - 10Bit DD 2.0 - Esub - [Cinemaghar]  / Bollywood - WebRips
Junglee.(2019).Hindi.720p.HDRip.x264.AAC.ESubs-=!MrSky!=- / Bollywood - WebRips
Aisa.Yeh.Jahaan.2015.Hindi.272p.AMZN.WeB.DL.H264.AAC.2.0.Dus.IcTv.(bwtorrents) / Bollywood - WebHD



Torrent Details For "Parchayee Ghost Stories [2019] Zee5 originals Ep - 9 1080p webdl x 264 - [cinemaghar] Xcl..."

Parchayee Ghost Stories [2019] Zee5 originals Ep - 9 1080p webdl x 264 - [cinemaghar] Xcl...

Download this torrent -- Magnet Download

Health:
Seeds: 70
Leechers: 23
Completed: 32 
Last Checked: 15-05-2019 07:00:04
External Torrent
UPDATE_STATS


Details
Name:Parchayee Ghost Stories [2019] Zee5 originals Ep - 9 1080p webdl x 264 - [cinemaghar] Xcl...
Description:
[center]Parchayee Ghost Stories  [2019] Zee5 originals Ep - 9 1080p webdl x 264 - [cinemaghar] Xclusive


Episode 9 Added - xclusive - 1st on net






Xclusive


- By Team Cinemaghar




General
Unique ID                                : 119081719475545558591844486454567958043 (0x59964E10550194A43DF3F0696FC2F61B)
Complete name                            : H:\Parchayee Ghost Stories  [2019] Zee5 originals Ep - 9 1080p webdl x 264 - [cinemaghar] Xclusive\Parchayee Ghost Stories  [2019] Zee5 originals Ep - 9 1080p webdl x 264 - [cinemaghar] Xclusive.mkv
Format                                   : Matroska
Format version                           : Version 4
File size                                : 619 MiB
Duration                                 : 39 min 17 s
Overall bit rate                         : 2 203 kb/s
Movie name                               : Episode 9 - Night of the Millennium [Cinemaghar]
Encoded date                             : UTC 2019-05-15 02:44:22
Writing application                      : mkvmerge v32.0.0 ('Astral Progressions') 64-bit
Writing library                          : libebml v1.3.7 + libmatroska v1.5.0

Video
ID                                       : 1
Format                                   : AVC
Format/Info                              : Advanced Video Codec
Format profile                           : [email protected]
Format settings                          : CABAC / 4 Ref Frames
Format settings, CABAC                   : Yes
Format settings, Reference frames        : 4 frames
Format settings, GOP                     : M=4, N=50
Codec ID                                 : V_MPEG4/ISO/AVC
Duration                                 : 39 min 17 s
Bit rate                                 : 2 200 kb/s
Width                                    : 1 920 pixels
Height                                   : 1 080 pixels
Display aspect ratio                     : 16:9
Frame rate mode                          : Constant
Frame rate                               : 25.000 FPS
Color space                              : YUV
Chroma subsampling                       : 4:2:0
Bit depth                                : 8 bits
Scan type                                : Progressive
Bits/(Pixel*Frame)                       : 0.042
Stream size                              : 591 MiB (96%)
Title                                    : Cinemaghar
Writing library                          : x264 core 152 r2854 e9a5903
Encoding settings                        : cabac=1 / ref=3 / deblock=1:0:0 / analyse=0x3:0x113 / me=hex / subme=7 / psy=1 / psy_rd=1.00:0.00 / mixed_ref=1 / me_range=16 / chroma_me=1 / trellis=1 / 8x8dct=1 / cqm=0 / deadzone=21,11 / fast_pskip=1 / chroma_qp_offset=-2 / threads=34 / lookahead_threads=5 / sliced_threads=0 / nr=0 / decimate=1 / interlaced=0 / bluray_compat=0 / constrained_intra=0 / bframes=3 / b_pyramid=2 / b_adapt=1 / b_bias=0 / direct=1 / weightb=1 / open_gop=0 / weightp=2 / keyint=50 / keyint_min=26 / scenecut=0 / intra_refresh=0 / rc_lookahead=40 / rc=abr / mbtree=1 / bitrate=2200 / ratetol=1.0 / qcomp=0.60 / qpmin=0 / qpmax=69 / qpstep=4 / vbv_maxrate=2860 / vbv_bufsize=3300 / nal_hrd=none / filler=0 / ip_ratio=1.40 / aq=1:1.00
Default                                  : Yes
Forced                                   : No

Audio
ID                                       : 2
Format                                   : AAC LC
Format/Info                              : Advanced Audio Codec Low Complexity
Codec ID                                 : A_AAC-2
Duration                                 : 39 min 17 s
Bit rate                                 : 96.0 kb/s
Channel(s)                               : 2 channels
Channel layout                           : L R
Sampling rate                            : 48.0 kHz
Frame rate                               : 46.875 FPS (1024 SPF)
Compression mode                         : Lossy
Stream size                              : 27.2 MiB (4%)
Title                                    : Cinemaghar
Default                                  : Yes
Forced                                   : No


[img] [/img]


[/center]
Category:Bollywood > TV Shows
Lang:Hindi
Total Size:619.11 MB
Info Hash:2b1776d9256e46ee1d19926054bd08460c2de1a0
Added By:Cinemaghar
Date Added:15-05-2019 00:47:43
Views:115
Hits:30


Ratings:Not Yet Rated (Log in to rate it)

  


Tracker:
udp://tracker.pirateparty.gr:6969/announce

This Torrent also has backup trackers
URLSeedersLeechersCompleted
http://tracker.torrentyorg.pl:80/announce635
https://tracker.fastdownload.xyz:443/announce1010
http://vps02.net.orel.ru:80/announce846


File List: 


Comments

NOCOMMENTS

Search











Most Active
Halla.Gulla.(2015)...
- [S: 4,294,967,295 - L: 4,294,967,295]

Abhay.[2019].Zee5....
- [S: 588,320 - L: 117,159]

Shikari.(2018).HDT...
- [S: 63,084 - L: 139,328]

Gully Boy.(2019).7...
- [S: 1,760 - L: 16,129]

The Protector S02 ...
- [S: 676 - L: 12,036]

Gully Boy.(2019).1...
- [S: 2,421 - L: 9,504]

Fuh se Fantasy [20...
- [S: 4,976 - L: 6,124]

Gully Boy (2019) H...
- [S: 6,186 - L: 3,461]

The Tashkent Files...
- [S: 3,774 - L: 3,226]

Dirty Model.2015.H...
- [S: 2,477 - L: 3,991]


Page Generated In 0.000000 secs.