[Login] or [Signup]

,
Login
Username:
Password:
[Signup]
[Recover Account]

Latest Posters
Kavacha (2019) Kannada 720p HD AVC Untouched x264  / Kannada - Movies
Firangi.2017.1080p.HQ.HDTV.x264.AAC.-.LHDm [Super Seeding] / Bollywood - WebHD
Skyfire [2019] Zee5 Org. Hindi series S01 - [Ep - 08] 1080p webdl x 264 AVC AAC [Cinemaghar] - Xclusive  / Bollywood - TV Shows
Savyasachi 2019 Hindi Dubbed 720p untouched x264 Exclusive [MnD] / Hindi Dubbed - Movies
Ezra (2019 - Ezra South Hindi Dubbed) - 720p -  HD Rip[x264 - AC3(5.1Ch)] - 1.4 GB   / South-Dubbed - Movies
Junglee (2019) Hindi Movie - 720p - HDRip [x264 - AAC3(5.1Ch)] - 1 GB  / Bollywood - WebHD



Torrent Details For "Detective.Pikachu.2019.720p.HDCAM.Hindi-English.x264"

Detective.Pikachu.2019.720p.HDCAM.Hindi-English.x264

Download this torrent -- Magnet Download

Health:
Seeds: 7
Leechers: 0
Completed:
Last Checked: 15-05-2019 07:41:48
External Torrent
UPDATE_STATS


Details
Name:Detective.Pikachu.2019.720p.HDCAM.Hindi-English.x264
Description:

Credit:katmoviehd
Screenshots:






Mediainfo:
Format                                   : Matroska
Format version                           : Version 4
File size                                : 948 MiB
Duration                                 : 1 h 37 min
Overall bit rate                         : 1 356 kb/s
Encoded date                             : UTC 2019-05-14 14:49:09
Writing application                      : mkvmerge v33.0.0 ('A Little Bit of Madness') 64-bit
Writing library                          : libebml v1.3.7 + libmatroska v1.5.0
Cover                                    : Yes
Attachments                              : Cover.jpg

Video
ID                                       : 1
Format                                   : AVC
Format/Info                              : Advanced Video Codec
Format profile                           : [email protected]
Format settings                          : CABAC / 5 Ref Frames
Format settings, CABAC                   : Yes
Format settings, RefFrames               : 5 frames
Codec ID                                 : V_MPEG4/ISO/AVC
Duration                                 : 1 h 37 min
Bit rate                                 : 1 088 kb/s
Width                                    : 1 280 pixels
Height                                   : 536 pixels
Display aspect ratio                     : 2.40:1
Frame rate mode                          : Constant
Frame rate                               : 30.000 FPS
Color space                              : YUV
Chroma subsampling                       : 4:2:0
Bit depth                                : 8 bits
Scan type                                : Progressive
Bits/(Pixel*Frame)                       : 0.053
Stream size                              : 766 MiB (81%)
Writing library                          : x264 core 148 r2643 5c65704
Encoding settings                        : cabac=1 / ref=5 / deblock=1:0:0 / analyse=0x3:0x113 / me=hex / subme=7 / psy=1 / psy_rd=1.00:0.00 / mixed_ref=1 / me_range=16 / chroma_me=1 / trellis=1 / 8x8dct=1 / cqm=0 / deadzone=21,11 / fast_pskip=1 / chroma_qp_offset=-2 / threads=8 / lookahead_threads=8 / sliced_threads=1 / slices=8 / nr=0 / decimate=1 / interlaced=0 / bluray_compat=0 / constrained_intra=0 / bframes=0 / weightp=2 / keyint=250 / keyint_min=25 / scenecut=40 / intra_refresh=0 / rc=abr / mbtree=0 / bitrate=1088 / ratetol=1.0 / qcomp=0.60 / qpmin=0 / qpmax=69 / qpstep=4 / ip_ratio=1.40 / aq=1:1.00
Default                                  : Yes
Forced                                   : No

Audio #1
ID                                       : 2
Format                                   : AAC LC
Format/Info                              : Advanced Audio Codec Low Complexity
Codec ID                                 : A_AAC-2
Duration                                 : 1 h 37 min
Bit rate                                 : 128 kb/s
Channel(s)                               : 2 channels
Channel layout                           : L R
Sampling rate                            : 48.0 kHz
Frame rate                               : 46.875 FPS (1024 SPF)
Compression mode                         : Lossy
Delay relative to video                  : -43 ms
Stream size                              : 89.5 MiB (9%)
Language                                 : Hindi
Default                                  : Yes
Forced                                   : Yes

Audio #2
ID                                       : 3
Format                                   : AAC LC
Format/Info                              : Advanced Audio Codec Low Complexity
Codec ID                                 : A_AAC-2
Duration                                 : 1 h 37 min
Bit rate                                 : 128 kb/s
Channel(s)                               : 2 channels
Channel layout                           : L R
Sampling rate                            : 48.0 kHz
Frame rate                               : 46.875 FPS (1024 SPF)
Compression mode                         : Lossy
Delay relative to video                  : -43 ms
Stream size                              : 89.4 MiB (9%)
Language                                 : English
Default                                  : No
Forced                                   : No

Text
ID                                       : 4
Format                                   : UTF-8
Codec ID                                 : S_TEXT/UTF8
Codec ID/Info                            : UTF-8 Plain Text
Duration                                 : 36 min 17 s
Bit rate                                 : 0 b/s
Count of elements                        : 2
Stream size                              : 75.0 Bytes (0%)
Language                                 : English
Default                                  : Yes
Forced                                   : No
Category:Hollywood > CAM/TS
Lang:Hindi
Total Size:947.53 MB
Info Hash:fe18d5f8446a92ad448f94bccfa38c393facd62c
Added By:may315
Date Added:15-05-2019 04:58:26
Views:67
Hits:17


Ratings:Not Yet Rated (Log in to rate it)

  


Tracker:
udp://tracker.openbittorrent.com:80/announce

This Torrent also has backup trackers
URLSeedersLeechersCompleted
http://tracker.torrentyorg.pl:80/announce100
https://tracker.fastdownload.xyz:443/announce100
http://vps02.net.orel.ru:80/announce201
http://104.28.1.30:8080/announce000
http://104.28.16.69/announce000
http://107.150.14.110:6969/announce000
http://109.121.134.121:1337/announce000
http://114.55.113.60:6969/announce000
http://125.227.35.196:6969/announce000
http://128.199.70.66:5944/announce000
http://157.7.202.64:8080/announce000
http://158.69.146.212:7777/announce000
http://173.254.204.71:1096/announce000
http://178.175.143.27/announce000
http://178.33.73.26:2710/announce000
http://182.176.139.129:6969/announce000
http://185.5.97.139:8089/announce000
http://188.165.253.109:1337/announce000
http://194.106.216.222/announce000
http://195.123.209.37:1337/announce000
http://210.244.71.25:6969/announce000
http://210.244.71.26:6969/announce000
http://213.159.215.198:6970/announce000
http://213.163.67.56:1337/announce000
http://37.19.5.139:6969/announce000
http://37.19.5.155:6881/announce000
http://46.4.109.148:6969/announce000
http://5.79.249.77:6969/announce000
http://5.79.83.193:2710/announce000
http://51.254.244.161:6969/announce000
http://59.36.96.77:6969/announce000
http://74.82.52.209:6969/announce000
http://80.246.243.18:6969/announce000
http://81.200.2.231/announce000
http://85.17.19.180/announce000
http://87.248.186.252:8080/announce000
http://87.253.152.137/announce000
http://91.216.110.47/announce000
http://91.217.91.21:3218/announce000
http://91.218.230.81:6969/announce000
http://93.92.64.5/announce000
http://atrack.pow7.com/announce000
http://bt.henbt.com:2710/announce000
http://bt.pusacg.org:8080/announce000
http://bt2.careland.com.cn:6969/announce000
http://explodie.org:6969/announce000
http://mgtracker.org:2710/announce000
http://mgtracker.org:6969/announce000
http://open.acgtracker.com:1096/announce000
http://open.lolicon.eu:7777/announce000
http://open.touki.ru/announce.php000
http://p4p.arenabg.ch:1337/announce000
http://p4p.arenabg.com:1337/announce000
http://pow7.com:80/announce000
http://retracker.gorcomnet.ru/announce000
http://retracker.krs-ix.ru/announce000
http://retracker.krs-ix.ru:80/announce000
http://secure.pow7.com/announce000
http://t1.pow7.com/announce000
http://t2.pow7.com/announce000
http://thetracker.org:80/announce000
http://torrent.gresille.org/announce000
http://torrentsmd.com:8080/announce000
http://tracker.aletorrenty.pl:2710/announce000
http://tracker.baravik.org:6970/announce000
http://tracker.bittor.pw:1337/announce000
http://tracker.bittorrent.am/announce000
http://tracker.calculate.ru:6969/announce000
http://tracker.dler.org:6969/announce000
http://tracker.dutchtracking.com/announce000
http://tracker.dutchtracking.com:80/announce000
http://tracker.dutchtracking.nl/announce000
http://tracker.dutchtracking.nl:80/announce000
http://tracker.edoardocolombo.eu:6969/announce000
http://tracker.ex.ua/announce000
http://tracker.ex.ua:80/announce000
http://tracker.filetracker.pl:8089/announce000
http://tracker.flashtorrents.org:6969/announce000
http://tracker.grepler.com:6969/announce000
http://tracker.internetwarriors.net:1337/announce000
http://tracker.kicks-ass.net/announce000
http://tracker.kicks-ass.net:80/announce000
http://tracker.kuroy.me:5944/announce000
http://tracker.mg64.net:6881/announce000
http://tracker.opentrackr.org:1337/announce000
http://tracker.skyts.net:6969/announce000
http://tracker.tfile.me/announce000
http://tracker.tiny-vps.com:6969/announce000
http://tracker.tvunderground.org.ru:3218/announce000
http://tracker.yoshi210.com:6969/announce000
http://tracker1.wasabii.com.tw:6969/announce000
http://tracker2.itzmx.com:6961/announce000
http://tracker2.wasabii.com.tw:6969/announce000
http://www.wareztorrent.com/announce000
http://www.wareztorrent.com:80/announce000
https://104.28.17.69/announce000
https://www.wareztorrent.com/announce000


File List: 


Comments

NOCOMMENTS

Search











Most Active
Halla.Gulla.(2015)...
- [S: 4,294,967,295 - L: 4,294,967,295]

Abhay.[2019].Zee5....
- [S: 588,320 - L: 117,159]

Shikari.(2018).HDT...
- [S: 63,084 - L: 139,328]

Gully Boy.(2019).7...
- [S: 1,760 - L: 16,129]

The Protector S02 ...
- [S: 676 - L: 12,036]

Gully Boy.(2019).1...
- [S: 2,421 - L: 9,504]

Fuh se Fantasy [20...
- [S: 4,976 - L: 6,124]

Gully Boy (2019) H...
- [S: 6,186 - L: 3,461]

The Tashkent Files...
- [S: 3,774 - L: 3,226]

Dirty Model.2015.H...
- [S: 2,477 - L: 3,991]


Page Generated In 0.000000 secs.