[Login] or [Signup]

,
Login
Username:
Password:
[Signup]
[Recover Account]

Latest Posters
Kavacha (2019) Kannada 720p HD AVC Untouched x264  / Kannada - Movies
Firangi.2017.1080p.HQ.HDTV.x264.AAC.-.LHDm [Super Seeding] / Bollywood - WebHD
Skyfire [2019] Zee5 Org. Hindi series S01 - [Ep - 08] 1080p webdl x 264 AVC AAC [Cinemaghar] - Xclusive  / Bollywood - TV Shows
Savyasachi 2019 Hindi Dubbed 720p untouched x264 Exclusive [MnD] / Hindi Dubbed - Movies
Ezra (2019 - Ezra South Hindi Dubbed) - 720p -  HD Rip[x264 - AC3(5.1Ch)] - 1.4 GB   / South-Dubbed - Movies
Junglee (2019) Hindi Movie - 720p - HDRip [x264 - AAC3(5.1Ch)] - 1 GB  / Bollywood - WebHD



Torrent Details For "Cake (2018) Urdu 720p NF WEB-DL x264 AAC 1GB ESub-1337xHD"

Cake (2018) Urdu 720p NF WEB-DL x264 AAC 1GB ESub-1337xHD

Download this torrent -- Magnet Download

Health:
Seeds: 0
Leechers: 0
Speed: No Activity
Completed:
Last Checked: 15-05-2019 08:10:13


Details
Name:Cake (2018) Urdu 720p NF WEB-DL x264 AAC 1GB ESub-1337xHD
Description:
[center]/' target='_blank'>https://Censored/





General
Complete name                            :Cake (2018) Urdu 720p NF WEB-DL x264 AAC 1GB ESub.mkv
Format                                   : Matroska
Format version                           : Version 4
File size                                : 1.04 GiB
Duration                                 : 2 h 5 min
Overall bit rate                         : 1 193 kb/s
Movie name                               : www.1337xHD.Mobi
Encoded date                             : UTC 2019-05-15 08:17:01
Writing application                      : mkvmerge v29.0.0 ('Like It Or Not') 32-bit
Writing library                          : libebml v1.3.6 + libmatroska v1.4.9

Video
ID                                       : 1
Format                                   : AVC
Format/Info                              : Advanced Video Codec
Format profile                           : [email protected]
Format settings                          : CABAC / 4 Ref Frames
Format settings, CABAC                   : Yes
Format settings, Reference frames        : 4 frames
Codec ID                                 : V_MPEG4/ISO/AVC
Duration                                 : 2 h 5 min
Bit rate                                 : 1 000 kb/s
Width                                    : 1 280 pixels
Height                                   : 720 pixels
Display aspect ratio                     : 16:9
Frame rate mode                          : Constant
Frame rate                               : 30.000 FPS
Color space                              : YUV
Chroma subsampling                       : 4:2:0
Bit depth                                : 8 bits
Scan type                                : Progressive
Bits/(Pixel*Frame)                       : 0.036
Stream size                              : 894 MiB (84%)
Title                                    : www.1337xHD.Mobi
Writing library                          : x264 core 132
Default                                  : Yes
Forced                                   : No

Audio
ID                                       : 2
Format                                   : AAC LC
Format/Info                              : Advanced Audio Codec Low Complexity
Codec ID                                 : A_AAC-2
Duration                                 : 2 h 5 min
Bit rate                                 : 192 kb/s
Channel(s)                               : 2 channels
Channel layout                           : L R
Sampling rate                            : 44.1 kHz
Frame rate                               : 43.066 FPS (1024 SPF)
Compression mode                         : Lossy
Delay relative to video                  : -67 ms
Stream size                              : 172 MiB (16%)
Title                                    : www.1337xHD.Mobi
Language                                 : Hindi
Default                                  : Yes
Forced                                   : No











[/center]
Category:Pakistani > Movies
Lang:Punjabi
Total Size:1.04 GB
Info Hash:1c8d0418aedd18e638ea2ad0dcffb12fc089a27e
Added By:1337xHD
Date Added:15-05-2019 08:10:13
Views:45
Hits:3


Ratings:Not Yet Rated (Log in to rate it)



File List: 

Peers List:
No Active Peers


Comments

NOCOMMENTS

Search











Most Active
Halla.Gulla.(2015)...
- [S: 4,294,967,295 - L: 4,294,967,295]

Abhay.[2019].Zee5....
- [S: 588,320 - L: 117,159]

Shikari.(2018).HDT...
- [S: 63,084 - L: 139,328]

Gully Boy.(2019).7...
- [S: 1,760 - L: 16,129]

The Protector S02 ...
- [S: 676 - L: 12,036]

Gully Boy.(2019).1...
- [S: 2,421 - L: 9,504]

Fuh se Fantasy [20...
- [S: 4,976 - L: 6,124]

Gully Boy (2019) H...
- [S: 6,186 - L: 3,461]

The Tashkent Files...
- [S: 3,774 - L: 3,226]

Dirty Model.2015.H...
- [S: 2,477 - L: 3,991]


Page Generated In 0.000000 secs.