[Login] or [Signup]

,
Login
Username:
Password:
[Signup]
[Recover Account]

Latest Posters
Kavacha (2019) Kannada 720p HD AVC Untouched x264  / Kannada - Movies
Firangi.2017.1080p.HQ.HDTV.x264.AAC.-.LHDm [Super Seeding] / Bollywood - WebHD
Skyfire [2019] Zee5 Org. Hindi series S01 - [Ep - 08] 1080p webdl x 264 AVC AAC [Cinemaghar] - Xclusive  / Bollywood - TV Shows
Savyasachi 2019 Hindi Dubbed 720p untouched x264 Exclusive [MnD] / Hindi Dubbed - Movies
Ezra (2019 - Ezra South Hindi Dubbed) - 720p -  HD Rip[x264 - AC3(5.1Ch)] - 1.4 GB   / South-Dubbed - Movies
Junglee (2019) Hindi Movie - 720p - HDRip [x264 - AAC3(5.1Ch)] - 1 GB  / Bollywood - WebHD



Torrent Details For "18+Bekaaboo (2019) Season 1 Complete Hindi AltBalaji Originals 720p WEB-DL x264 1.6GB-1337..."

18+Bekaaboo (2019) Season 1 Complete Hindi AltBalaji Originals 720p WEB-DL x264 1.6GB-1337...

Download this torrent -- Magnet Download

Health:
Seeds: 0
Leechers: 0
Speed: No Activity
Completed:
Last Checked: 15-05-2019 08:45:42


Details
Name:18+Bekaaboo (2019) Season 1 Complete Hindi AltBalaji Originals 720p WEB-DL x264 1.6GB-1337...
Description:
[center]/' target='_blank'>https://Censored/





General
Complete name                            :Bekaaboo (2019) Season 1 Complete Hindi AltBalaji Originals 720p WEB-DL x264 1.6GB.mkv
Format                                   : Matroska
Format version                           : Version 4
File size                                : 1.62 GiB
Duration                                 : 3 h 26 min
Overall bit rate                         : 1 121 kb/s
Movie name                               : www.1337xHD.Mobi
Encoded date                             : UTC 2019-05-15 10:12:03
Writing application                      : mkvmerge v29.0.0 ('Like It Or Not') 32-bit
Writing library                          : libebml v1.3.6 + libmatroska v1.4.9

Video
ID                                       : 1
Format                                   : AVC
Format/Info                              : Advanced Video Codec
Format profile                           : [email protected]
Format settings                          : CABAC / 4 Ref Frames
Format settings, CABAC                   : Yes
Format settings, Reference frames        : 4 frames
Codec ID                                 : V_MPEG4/ISO/AVC
Duration                                 : 3 h 26 min
Bit rate                                 : 1 000 kb/s
Width                                    : 1 280 pixels
Height                                   : 720 pixels
Display aspect ratio                     : 16:9
Frame rate mode                          : Constant
Frame rate                               : 25.000 FPS
Color space                              : YUV
Chroma subsampling                       : 4:2:0
Bit depth                                : 8 bits
Scan type                                : Progressive
Bits/(Pixel*Frame)                       : 0.043
Stream size                              : 1.44 GiB (89%)
Title                                    : www.1337xHD.Mobi
Writing library                          : x264 core 132
Default                                  : Yes
Forced                                   : No

Audio
ID                                       : 2
Format                                   : AAC LC
Format/Info                              : Advanced Audio Codec Low Complexity
Codec ID                                 : A_AAC-2
Duration                                 : 3 h 26 min
Bit rate                                 : 119 kb/s
Channel(s)                               : 2 channels
Channel layout                           : L R
Sampling rate                            : 44.1 kHz
Frame rate                               : 43.066 FPS (1024 SPF)
Compression mode                         : Lossy
Delay relative to video                  : -80 ms
Stream size                              : 175 MiB (11%)
Title                                    : www.1337xHD.Mobi
Language                                 : Hindi
Default                                  : Yes
Forced                                   : No













[/center]
Category:18+ > Web Series
Lang:Hindi
Total Size:1.62 GB
Info Hash:9b93c2e398193520ccf2be9b0c9c34f391fc3fb1
Added By:1337xHD
Date Added:15-05-2019 08:45:42
Views:98
Hits:20


Ratings:Not Yet Rated (Log in to rate it)



File List: 

Peers List:
No Active Peers


Comments

NOCOMMENTS

Search











Most Active
Halla.Gulla.(2015)...
- [S: 4,294,967,295 - L: 4,294,967,295]

Abhay.[2019].Zee5....
- [S: 588,320 - L: 117,159]

Shikari.(2018).HDT...
- [S: 63,084 - L: 139,328]

Gully Boy.(2019).7...
- [S: 1,760 - L: 16,129]

The Protector S02 ...
- [S: 676 - L: 12,036]

Gully Boy.(2019).1...
- [S: 2,421 - L: 9,504]

Fuh se Fantasy [20...
- [S: 4,976 - L: 6,124]

Gully Boy (2019) H...
- [S: 6,186 - L: 3,461]

The Tashkent Files...
- [S: 3,774 - L: 3,226]

Dirty Model.2015.H...
- [S: 2,477 - L: 3,991]


Page Generated In 0.000000 secs.