[Login] or [Signup]

,
Search











Latest Posters
Angry Indian Goddesses (2015) Hindi - 720p WEB-DL -x264 - AAC 5.1 - ESub - Sun George / Bollywood - WebHD
Kaafir (2019) Hindi - {Season 01} - 720p WEB-DL - x264 - AAC 2.0 - Sun George / 18+ - Web Series
Reunion (2019) Bengali Movie 480p HDRip 1GB x264 / Bangla - Movies
Amar Akbhar Anthoni 2019 Hindi Dubbed Movie   Ravi Teja HDRip 750Mb / Hindi Dubbed - Movies
Amar Akbhar Anthoni (2019) 1080p UntoucheD Hindi WEBHD - AVC - AAC - DUSICTV Xclusive.mp4 / South-Dubbed - Movies
Mohan Vadani (Mo) 2019 Hindi 750MB HDTVRip 720p HEVC x265 / Hindi Dubbed - Movies


Torrent Details For "The Accidental Prime Minister [2019] Hindi Webhd 1080p x 265 (hevc) - 10Bit DD 2.0 - Esub ..."

The Accidental Prime Minister [2019] Hindi Webhd 1080p x 265 (hevc) - 10Bit DD 2.0 - Esub ...

Download this torrent -- Magnet Download

Health:
Seeds: 173
Leechers: 118
Completed: 1,504 
Last Checked: 01-06-2019 14:55:33
External Torrent
UPDATE_STATS


Details
Name:The Accidental Prime Minister [2019] Hindi Webhd 1080p x 265 (hevc) - 10Bit DD 2.0 - Esub ...
Description:
[center]The Accidental Prime Minister [2019] Hindi Webhd 1080p x 265 (hevc) - 10Bit DD 2.0 - Esub - [Cinemaghar]

Enjoy 10 Bit Quality





- Encoded By Bong-torrent
- Team Cinemaghar


General
Unique ID                                : 129908784070640841023533621608977453277 (0x61BB858FF853B1E59F2A25D9052ED0DD)
Complete name                            : G:\The Accidental Prime Minister [2019] Hindi Webhd 1080p x 265 (hevc) - 10Bit DD 2.0 - Esub - [Cinemaghar]\The Accidental Prime Minister [2019] Hindi Webhd 1080p x 265 (hevc) - 10Bit DD 2.0 - Esub - [Cinemaghar] .mkv
Format                                   : Matroska
Format version                           : Version 4
File size                                : 3.01 GiB
Duration                                 : 1 h 44 min
Overall bit rate                         : 4 115 kb/s
Movie name                               : The Accidental Prime Minister [2019] Hindi Webhd 1080p x 265 (hevc) - 10Bit - Encoded By Bong-torrent
Encoded date                             : UTC 2019-05-25 13:20:49
Writing application                      : mkvmerge v32.0.0 ('Astral Progressions') 64-bit
Writing library                          : libebml v1.3.7 + libmatroska v1.5.0 / Lavf58.20.100

Video
ID                                       : 1
Format                                   : HEVC
Format/Info                              : High Efficiency Video Coding
Format profile                           : Main [email protected]@Main
Codec ID                                 : V_MPEGH/ISO/HEVC
Duration                                 : 1 h 44 min
Bit rate                                 : 3 729 kb/s
Width                                    : 1 920 pixels
Height                                   : 800 pixels
Display aspect ratio                     : 2.40:1
Frame rate mode                          : Variable
Frame rate                               : 24.960 FPS
Original frame rate                      : 25.000 FPS
Color space                              : YUV
Chroma subsampling                       : 4:2:0
Bit depth                                : 10 bits
Bits/(Pixel*Frame)                       : 0.097
Stream size                              : 2.73 GiB (91%)
Title                                    : Cinemaghar
Writing library                          : x265 2.9:[Windows][GCC 8.2.0][64 bit] 10bit
Encoding settings                        : cpuid=1111039 / frame-threads=2 / numa-pools=4 / wpp / no-pmode / no-pme / no-psnr / no-ssim / log-level=2 / input-csp=1 / input-res=1920x800 / interlace=0 / total-frames=0 / level-idc=0 / high-tier=1 / uhd-bd=0 / ref=3 / no-allow-non-conformance / no-repeat-headers / annexb / no-aud / no-hrd / info / hash=0 / no-temporal-layers / open-gop / min-keyint=25 / keyint=250 / gop-lookahead=0 / bframes=4 / b-adapt=2 / b-pyramid / bframe-bias=0 / rc-lookahead=20 / lookahead-slices=5 / scenecut=40 / radl=0 / no-intra-refresh / ctu=64 / min-cu-size=8 / no-rect / no-amp / max-tu-size=32 / tu-inter-depth=1 / tu-intra-depth=1 / limit-tu=0 / rdoq-level=0 / dynamic-rd=0.00 / no-ssim-rd / signhide / no-tskip / nr-intra=0 / nr-inter=0 / no-constrained-intra / no-strong-intra-smoothing / max-merge=2 / limit-refs=3 / no-limit-modes / me=1 / subme=2 / merange=57 / temporal-mvp / weightp / no-weightb / no-analyze-src-pics / deblock=0:0 / sao / no-sao-non-deblock / rd=3 / no-early-skip / rskip / no-fast-intra / no-tskip-fast / no-cu-lossless / no-b-intra / no-splitrd-skip / rdpenalty=0 / psy-rd=2.00 / psy-rdoq=0.00 / no-rd-refine / no-lossless / cbqpoffs=0 / crqpoffs=0 / rc=abr / bitrate=3800 / qcomp=0.60 / qpstep=4 / stats-write=0 / stats-read=0 / ipratio=1.40 / pbratio=1.30 / aq-mode=1 / aq-strength=1.00 / cutree / zone-count=0 / no-strict-cbr / qg-size=32 / no-rc-grain / qpmax=69 / qpmin=0 / no-const-vbv / sar=1 / overscan=0 / videoformat=5 / range=0 / colorprim=1 / transfer=1 / colormatrix=1 / chromaloc=0 / display-window=0 / max-cll=0,0 / min-luma=0 / max-luma=1023 / log2-max-poc-lsb=8 / vui-timing-info / vui-hrd-info / slices=1 / no-opt-qp-pps / no-opt-ref-list-length-pps / no-multi-pass-opt-rps / scenecut-bias=0.05 / no-opt-cu-delta-qp / no-aq-motion / no-hdr / no-hdr-opt / no-dhdr10-opt / no-idr-recovery-sei / analysis-reuse-level=5 / scale-factor=0 / refine-intra=0 / refine-inter=0 / refine-mv=0 / no-limit-sao / ctu-info=0 / no-lowpass-dct / refine-mv-type=0 / copy-pic=1 / max-ausize-factor=1.0 / no-dynamic-refine / no-single-sei
Language                                 : Hindi
Default                                  : Yes
Forced                                   : No
Color range                              : Limited
Color primaries                          : BT.709
Transfer characteristics                 : BT.709
Matrix coefficients                      : BT.709

Audio
ID                                       : 2
Format                                   : AC-3
Format/Info                              : Audio Coding 3
Commercial name                          : Dolby Digital
Codec ID                                 : A_AC3
Duration                                 : 1 h 44 min
Bit rate mode                            : Constant
Bit rate                                 : 384 kb/s
Channel(s)                               : 2 channels
Channel layout                           : L R
Sampling rate                            : 48.0 kHz
Frame rate                               : 31.250 FPS (1536 SPF)
Bit depth                                : 16 bits
Compression mode                         : Lossy
Delay relative to video                  : -85 ms
Stream size                              : 288 MiB (9%)
Title                                    : Cinemaghar DD 2.0
Language                                 : Hindi
Service kind                             : Complete Main
Default                                  : Yes
Forced                                   : Yes

Text
ID                                       : 3
Format                                   : UTF-8
Codec ID                                 : S_TEXT/UTF8
Codec ID/Info                            : UTF-8 Plain Text
Duration                                 : 1 h 39 min
Bit rate                                 : 62 b/s
Count of elements                        : 1265
Stream size                              : 45.2 KiB (0%)
Title                                    : Cinemaghar
Language                                 : English
Default                                  : Yes
Forced                                   : Yes


[img] [/img]



[/center]
Category:Bollywood > WebRips
Lang:Hindi
Total Size:3.15 GB
Info Hash:ae2b694d006c017a98652e1640f753b335e440d2
Added By:Cinemaghar
Date Added:25-05-2019 11:38:46
Views:65
Hits:16


Ratings:Not Yet Rated (Log in to rate it)

  


Tracker:
udp://tracker.pirateparty.gr:6969/announce

This Torrent also has backup trackers
URLSeedersLeechersCompleted
http://tracker.torrentyorg.pl:80/announce7546
https://tracker.fastdownload.xyz:443/announce990
http://vps02.net.orel.ru:80/announce101092


File List: 


Comments

NOCOMMENTS

Page Generated In 0.000000 secs.