[Login] or [Signup]

,
Search











Latest Posters
Angry Indian Goddesses (2015) Hindi - 720p WEB-DL -x264 - AAC 5.1 - ESub - Sun George / Bollywood - WebHD
Kaafir (2019) Hindi - {Season 01} - 720p WEB-DL - x264 - AAC 2.0 - Sun George / 18+ - Web Series
Reunion (2019) Bengali Movie 480p HDRip 1GB x264 / Bangla - Movies
Amar Akbhar Anthoni 2019 Hindi Dubbed Movie   Ravi Teja HDRip 750Mb / Hindi Dubbed - Movies
Amar Akbhar Anthoni (2019) 1080p UntoucheD Hindi WEBHD - AVC - AAC - DUSICTV Xclusive.mp4 / South-Dubbed - Movies
Mohan Vadani (Mo) 2019 Hindi 750MB HDTVRip 720p HEVC x265 / Hindi Dubbed - Movies


Torrent Details For "Junglee 2019 1080p WEBRip Hindi x264 AAC ESub.-.LHDm"

Junglee 2019 1080p WEBRip Hindi x264 AAC ESub.-.LHDm

Download this torrent -- Magnet Download

Health:
Seeds: 185
Leechers: 86
Completed: 1,336 
Last Checked: 28-05-2019 16:31:16
External Torrent
UPDATE_STATS


Details
Name:Junglee 2019 1080p WEBRip Hindi x264 AAC ESub.-.LHDm
Description:
[center]



https://latesthdmovies.club/junglee-2019-webrip/



No Website Tag No Watermark




General
Unique ID                   : 307797270149230195968989144476648261902 (0xE78F991278BDF935852E3705DE28C90E)
Complete name               : C:\Users\Administrator\Downloads\Junglee 2019 [WEBRip] [1080p]\[LatestHDmovies.Club]-Junglee 2019 [WEBRip] [1080p].mkv
Format                      : Matroska
Format version              : Version 4
File size                   : 1.62 GiB
Duration                    : 1 h 54 min
Overall bit rate            : 2 017 kb/s
Encoded date                : UTC 2019-05-25 13:39:30
Writing application         : mkvmerge v32.0.0 ('Astral Progressions') 32-bit
Writing library             : libebml v1.3.7 + libmatroska v1.5.0

Video
ID                          : 1
Format                      : AVC
Format/Info                 : Advanced Video Codec
Format profile              : [email protected]
Format settings             : CABAC / 4 Ref Frames
Format settings, CABAC      : Yes
Format settings, ReFrames   : 4 frames
Codec ID                    : V_MPEG4/ISO/AVC
Duration                    : 1 h 54 min
Bit rate                    : 1 856 kb/s
Width                       : 1 920 pixels
Height                      : 800 pixels
Display aspect ratio        : 2.40:1
Frame rate mode             : Constant
Frame rate                  : 24.000 FPS
Color space                 : YUV
Chroma subsampling          : 4:2:0
Bit depth                   : 8 bits
Scan type                   : Progressive
Bits/(Pixel*Frame)          : 0.050
Stream size                 : 1.49 GiB (92%)
Writing library             : x264 core 157 r2935 545de2f
Encoding settings           : cabac=1 / ref=2 / deblock=1:0:0 / analyse=0x1:0x111 / me=hex / subme=6 / psy=1 / psy_rd=1.00:0.00 / mixed_ref=1 / me_range=16 / chroma_me=1 / trellis=1 / 8x8dct=0 / cqm=0 / deadzone=21,11 / fast_pskip=1 / chroma_qp_offset=-2 / threads=3 / lookahead_threads=1 / sliced_threads=0 / nr=0 / decimate=1 / interlaced=0 / bluray_compat=0 / constrained_intra=0 / bframes=3 / b_pyramid=2 / b_adapt=1 / b_bias=0 / direct=1 / weightb=1 / open_gop=0 / weightp=1 / keyint=240 / keyint_min=24 / scenecut=40 / intra_refresh=0 / rc_lookahead=30 / rc=2pass / mbtree=1 / bitrate=1856 / ratetol=1.0 / qcomp=0.60 / qpmin=0 / qpmax=69 / qpstep=4 / cplxblur=20.0 / qblur=0.5 / vbv_maxrate=20000 / vbv_bufsize=25000 / nal_hrd=none / filler=0 / ip_ratio=1.40 / aq=1:1.00
Default                     : Yes
Forced                      : No
Color range                 : Limited
Color primaries             : BT.709
Transfer characteristics    : BT.709
Matrix coefficients         : BT.709

Audio
ID                          : 2
Format                      : AAC LC
Format/Info                 : Advanced Audio Codec Low Complexity
Codec ID                    : A_AAC-2
Duration                    : 1 h 54 min
Bit rate                    : 159 kb/s
Channel(s)                  : 2 channels
Channel layout              : L R
Sampling rate               : 48.0 kHz
Frame rate                  : 46.875 FPS (1024 SPF)
Compression mode            : Lossy
Delay relative to video     : -21 ms
Stream size                 : 131 MiB (8%)
Default                     : Yes
Forced                      : No

Text
ID                          : 3
Format                      : UTF-8
Codec ID                    : S_TEXT/UTF8
Codec ID/Info               : UTF-8 Plain Text
Duration                    : 1 h 50 min
Bit rate                    : 36 b/s
Count of elements           : 1168
Stream size                 : 29.3 KiB (0%)
Language                    : English
Default                     : Yes
Forced                      : No




[/center]
Category:Bollywood > WebRips
Lang:Hindi
Total Size:1.62 GB
Info Hash:c791e72be206ea82915e572c979ad73897fbeec8
Added By:LatestHDmovies
Date Added:25-05-2019 16:42:06
Views:98
Hits:36


Ratings:Not Yet Rated (Log in to rate it)

  


Tracker:
udp://tracker.pirateparty.gr:6969/announce

This Torrent also has backup trackers
URLSeedersLeechersCompleted
http://tracker.torrentyorg.pl:80/announce15341
https://tracker.fastdownload.xyz:443/announce1540
http://vps02.net.orel.ru:80/announce19981


File List: 


Comments

NOCOMMENTS

Page Generated In 0.000000 secs.