[Login] or [Signup]

,
Search











Latest Posters
Angry Indian Goddesses (2015) Hindi - 720p WEB-DL -x264 - AAC 5.1 - ESub - Sun George / Bollywood - WebHD
Kaafir (2019) Hindi - {Season 01} - 720p WEB-DL - x264 - AAC 2.0 - Sun George / 18+ - Web Series
Reunion (2019) Bengali Movie 480p HDRip 1GB x264 / Bangla - Movies
Amar Akbhar Anthoni 2019 Hindi Dubbed Movie   Ravi Teja HDRip 750Mb / Hindi Dubbed - Movies
Amar Akbhar Anthoni (2019) 1080p UntoucheD Hindi WEBHD - AVC - AAC - DUSICTV Xclusive.mp4 / South-Dubbed - Movies
Mohan Vadani (Mo) 2019 Hindi 750MB HDTVRip 720p HEVC x265 / Hindi Dubbed - Movies


Torrent Details For "Aata - The Game of Fear (2019 - Ouija Game Never Ends Hindi Dubbed) - 720p - HD Rip[x264 ..."

Aata - The Game of Fear (2019 - Ouija Game Never Ends Hindi Dubbed) - 720p - HD Rip[x264 ...

Download this torrent -- Magnet Download

Health:
Seeds: 38
Leechers: 50
Completed: 40 
Last Checked: 26-05-2019 00:59:37
External Torrent
UPDATE_STATS


Details
Name:Aata - The Game of Fear (2019 - Ouija Game Never Ends Hindi Dubbed) - 720p - HD Rip[x264 ...
Description:
      Aata - The Game of Fear (2019 - Ouija Game Never Ends
Hindi Dubbed) - 720p - HD Rip[x264 - AC3(5.1Ch)] - 1 GB  
 





General
Format                                   : Matroska
Format version                           : Version 4
File size                                : 1.00 GiB
Duration                                 : 2 h 3 min

Video
ID                                       : 1
Format                                   : AVC
Format/Info                              : Advanced Video Codec
Format profile                           : [email protected]
Format settings                          : CABAC / 4 Ref Frames
Format settings, CABAC                   : Yes
Format settings, Reference frames        : 4 frames
Codec ID                                 : V_MPEG4/ISO/AVC
Duration                                 : 2 h 3 min
Bit rate                                 : 1 034 kb/s
Width                                    : 1 280 pixels
Height                                   : 552 pixels
Display aspect ratio                     : 2.35:1
Frame rate mode                          : Constant
Frame rate                               : 25.000 FPS
Color space                              : YUV
Chroma subsampling                       : 4:2:0
Bit depth                                : 8 bits
Scan type                                : Progressive
Bits/(Pixel*Frame)                       : 0.059
Stream size                              : 912 MiB (89%)

Audio
ID                                       : 2
Format                                   : AAC LC SBR
Commercial name                          : HE-AAC
Format settings                          : Explicit
Codec ID                                 : A_AAC-2
Duration                                 : 2 h 3 min
Bit rate                                 : 128 kb/s
Channel(s)                               : 6 channels
Channel layout                           : C L R Ls Rs LFE
Sampling rate                            : 48.0 kHz
Stream size                              : 113 MiB (11%)























Category:South-Dubbed > Movies
Lang:Hindi
Total Size:1.00 GB
Info Hash:49a3e6cdb18cab55e5e6820409bdef9647795162
Added By:Optimus
Date Added:25-05-2019 16:52:47
Views:69
Hits:14


Ratings:Not Yet Rated (Log in to rate it)

  


Tracker:
udp://tracker.pirateparty.gr:6969/announce

This Torrent also has backup trackers
URLSeedersLeechersCompleted
http://tracker.torrentyorg.pl:80/announce000
https://tracker.fastdownload.xyz:443/announce110
http://vps02.net.orel.ru:80/announce100


File List: 


Comments

NOCOMMENTS

Page Generated In 0.000000 secs.