[Login] or [Signup]

,
Search











Latest Posters
Nabab 2019 Bangla Movie Shakib Khan HDRip 1GB / Bangla - Movies
Devon Ke Dev... Mahadev (2011) Hindi - {Episodes 224 To 344 } - 720p WEB-DL - x264 - AAC 2.0 - Sun George / Bollywood - WebHD
The Avengers Earths Mightiest Heroes [2010-12] Complete S01 1080p Bluray x 264 Duel Aud [Hin DD 2.0 + Eng DDP 5.1] - Esub Reperza-Cinemaghar  / Hollywood - Anime, Cartoon
The Avengers Earths Mightiest Heroes [2010-12] Complete S01 720p Bluray x 264 Duel Aud [Hin DD 2.0 + Eng DDP 5.1] - Esub Reperza-Cinemaghar  / Hollywood - Anime, Cartoon
Sweater (2019) Bengali Movie 720p HDRip 800MB / Bangla - Movies
Garuda (2019) Hindi Dubbed Movie HDRip 800MB / Hindi Dubbed - Movies

Torrent Details For "Junglee (2019) Hindi Movie - 720p - HDRip [x264 - AAC3(5.1Ch)] - 1 GB "

Junglee (2019) Hindi Movie - 720p - HDRip [x264 - AAC3(5.1Ch)] - 1 GB

Download this torrent -- Magnet Download

Health:
Seeds: 48
Leechers: 89
Completed: 43 
Last Checked: 26-05-2019 00:58:49
External Torrent
UPDATE_STATS


Details
Name:Junglee (2019) Hindi Movie - 720p - HDRip [x264 - AAC3(5.1Ch)] - 1 GB
Description:
       Junglee (2019) Hindi Movie - 720p - HDRip
[x264 - AAC3(5.1Ch)] - 1 GB  
 







General
Format                                   : Matroska
Format version                           : Version 4
File size                                : 1.00 GiB
Duration                                 : 2 h 5 min

Video
ID                                       : 1
Format                                   : AVC
Format/Info                              : Advanced Video Codec
Format profile                           : [email protected]
Format settings                          : CABAC / 4 Ref Frames
Format settings, CABAC                   : Yes
Format settings, Reference frames        : 4 frames
Codec ID                                 : V_MPEG4/ISO/AVC
Duration                                 : 2 h 5 min
Bit rate                                 : 1 011 kb/s
Width                                    : 1 280 pixels
Height                                   : 544 pixels
Display aspect ratio                     : 2.35:1
Frame rate mode                          : Constant
Frame rate                               : 25.000 FPS
Color space                              : YUV
Chroma subsampling                       : 4:2:0
Bit depth                                : 8 bits
Scan type                                : Progressive
Bits/(Pixel*Frame)                       : 0.058
Stream size                              : 910 MiB (89%)

Audio
ID                                       : 2
Format                                   : AAC LC SBR
Commercial name                          : HE-AAC
Format settings                          : Explicit
Codec ID                                 : A_AAC-2
Duration                                 : 2 h 5 min
Bit rate                                 : 128 kb/s
Channel(s)                               : 6 channels
Channel layout                           : C L R Ls Rs LFE
Sampling rate                            : 48.0 kHz
Stream size                              : 115 MiB (11%)



















Category:Bollywood > WebHD
Lang:Hindi
Total Size:1.00 GB
Info Hash:f3e4929c81cb8d292617441dae29707b205ca98b
Added By:Optimus
Date Added:25-05-2019 18:21:13
Views:57
Hits:9


Ratings:Not Yet Rated (Log in to rate it)

  


Tracker:
udp://tracker.pirateparty.gr:6969/announce

This Torrent also has backup trackers
URLSeedersLeechersCompleted
http://tracker.torrentyorg.pl:80/announce110
https://tracker.fastdownload.xyz:443/announce130
http://vps02.net.orel.ru:80/announce120


File List: 


Comments

NOCOMMENTS

Page Generated In 0.000000 secs.