[Login] or [Signup]

,
Search











Latest Posters
Angry Indian Goddesses (2015) Hindi - 720p WEB-DL -x264 - AAC 5.1 - ESub - Sun George / Bollywood - WebHD
Kaafir (2019) Hindi - {Season 01} - 720p WEB-DL - x264 - AAC 2.0 - Sun George / 18+ - Web Series
Reunion (2019) Bengali Movie 480p HDRip 1GB x264 / Bangla - Movies
Amar Akbhar Anthoni 2019 Hindi Dubbed Movie   Ravi Teja HDRip 750Mb / Hindi Dubbed - Movies
Amar Akbhar Anthoni (2019) 1080p UntoucheD Hindi WEBHD - AVC - AAC - DUSICTV Xclusive.mp4 / South-Dubbed - Movies
Mohan Vadani (Mo) 2019 Hindi 750MB HDTVRip 720p HEVC x265 / Hindi Dubbed - Movies


Torrent Details For "Skyfire [2019] Zee5 Org. Hindi series S01 - [Ep - 08] 1080p webdl x 264 AVC AAC [Cinemagha..."

Skyfire [2019] Zee5 Org. Hindi series S01 - [Ep - 08] 1080p webdl x 264 AVC AAC [Cinemagha...

Download this torrent -- Magnet Download

Health:
Seeds: 37
Leechers: 18
Completed: 611 
Last Checked: 29-05-2019 15:48:53
External Torrent
UPDATE_STATS


Details
Name:Skyfire [2019] Zee5 Org. Hindi series S01 - [Ep - 08] 1080p webdl x 264 AVC AAC [Cinemagha...
Description:
[center]Skyfire [2019] Zee5 Org. Hindi series S01 - [Ep - 08] 1080p webdl x 264 AVC AAC [Cinemaghar] - Xclusive


****Xclusive****  Ep - 08 Added






- By Team Cinemaghar




General
Unique ID                                : 216826712861803412445487028303618904940 (0xA31F4E4FBF85FDB1CDC347E3F618136C)
Complete name                            : G:\Skyfire [2019] Zee5 Org. Hindi series S01 - [Ep - 08] 1080p webdl x 264 AVC AAC [Cinemaghar] - Xclusive\Episode 8 - The Monster[Cinemaghar].mkv
Format                                   : Matroska
Format version                           : Version 4
File size                                : 690 MiB
Duration                                 : 42 min 33 s
Overall bit rate                         : 2 267 kb/s
Movie name                               : Episode 8 - The Monster[Cinemaghar]
Encoded date                             : UTC 2019-05-26 06:50:43
Writing application                      : mkvmerge v32.0.0 ('Astral Progressions') 64-bit
Writing library                          : libebml v1.3.7 + libmatroska v1.5.0

Video
ID                                       : 1
Format                                   : AVC
Format/Info                              : Advanced Video Codec
Format profile                           : [email protected]
Format settings                          : CABAC / 4 Ref Frames
Format settings, CABAC                   : Yes
Format settings, Reference frames        : 4 frames
Format settings, GOP                     : M=4, N=50
Codec ID                                 : V_MPEG4/ISO/AVC
Duration                                 : 42 min 33 s
Bit rate                                 : 2 200 kb/s
Width                                    : 1 920 pixels
Height                                   : 1 080 pixels
Display aspect ratio                     : 16:9
Frame rate mode                          : Constant
Frame rate                               : 25.000 FPS
Color space                              : YUV
Chroma subsampling                       : 4:2:0
Bit depth                                : 8 bits
Scan type                                : Progressive
Bits/(Pixel*Frame)                       : 0.042
Stream size                              : 660 MiB (96%)
Title                                    : Cinemaghar
Writing library                          : x264 core 152 r2854 e9a5903
Encoding settings                        : cabac=1 / ref=3 / deblock=1:0:0 / analyse=0x3:0x113 / me=hex / subme=7 / psy=1 / psy_rd=1.00:0.00 / mixed_ref=1 / me_range=16 / chroma_me=1 / trellis=1 / 8x8dct=1 / cqm=0 / deadzone=21,11 / fast_pskip=1 / chroma_qp_offset=-2 / threads=34 / lookahead_threads=5 / sliced_threads=0 / nr=0 / decimate=1 / interlaced=0 / bluray_compat=0 / constrained_intra=0 / bframes=3 / b_pyramid=2 / b_adapt=1 / b_bias=0 / direct=1 / weightb=1 / open_gop=0 / weightp=2 / keyint=50 / keyint_min=26 / scenecut=0 / intra_refresh=0 / rc_lookahead=40 / rc=abr / mbtree=1 / bitrate=2200 / ratetol=1.0 / qcomp=0.60 / qpmin=0 / qpmax=69 / qpstep=4 / vbv_maxrate=2860 / vbv_bufsize=3300 / nal_hrd=none / filler=0 / ip_ratio=1.40 / aq=1:1.00
Default                                  : Yes
Forced                                   : No

Audio
ID                                       : 2
Format                                   : AAC LC
Format/Info                              : Advanced Audio Codec Low Complexity
Codec ID                                 : A_AAC-2
Duration                                 : 42 min 33 s
Bit rate                                 : 96.0 kb/s
Channel(s)                               : 2 channels
Channel layout                           : L R
Sampling rate                            : 48.0 kHz
Frame rate                               : 46.875 FPS (1024 SPF)
Compression mode                         : Lossy
Stream size                              : 29.5 MiB (4%)
Title                                    : Cinemaghar
Default                                  : Yes
Forced                                   : No


[img] [/img]


[/center]
Category:Bollywood > TV Shows
Lang:Hindi
Total Size:690.03 MB
Info Hash:877f6d2d4716d95a725e2307b93f990ea4a13a2c
Added By:Cinemaghar
Date Added:26-05-2019 05:05:18
Views:176
Hits:37


Ratings:Not Yet Rated (Log in to rate it)

  


Tracker:
udp://tracker.pirateparty.gr:6969/announce

This Torrent also has backup trackers
URLSeedersLeechersCompleted
http://tracker.torrentyorg.pl:80/announce0212
https://tracker.fastdownload.xyz:443/announce110
http://vps02.net.orel.ru:80/announce1123


File List: 


Comments

NOCOMMENTS

Page Generated In 0.000000 secs.