[Login] or [Signup]

,
Search











Latest Posters
Th.Secret.Life.of.Pets.2.2019.720p.HD-TC.Dual.Audio.(Hindi-Eng) / Hollywood - CAM/TS
Alita.Battle.Angel.2019.720p.HDRip.Dual.audio.(hindi-eng) / Hindi Dubbed - Movies
Angry Indian Goddesses (2015) Hindi - 720p WEB-DL -x264 - AAC 5.1 - ESub - Sun George / Bollywood - WebHD
Kaafir (2019) Hindi - {Season 01} - 720p WEB-DL - x264 - AAC 2.0 - Sun George / 18+ - Web Series
Reunion (2019) Bengali Movie 480p HDRip 1GB x264 / Bangla - Movies
Amar Akbhar Anthoni 2019 Hindi Dubbed Movie   Ravi Teja HDRip 750Mb / Hindi Dubbed - Movies


Torrent Details For "Firangi.2017.1080p.HQ.HDTV.x264.AAC.-.LHDm [Super Seeding]"

Firangi.2017.1080p.HQ.HDTV.x264.AAC.-.LHDm [Super Seeding]

Download this torrent -- Magnet Download

Health:
Seeds: 38
Leechers: 20
Completed: 341 
Last Checked: 28-05-2019 16:30:02
External Torrent
UPDATE_STATS


Details
Name:Firangi.2017.1080p.HQ.HDTV.x264.AAC.-.LHDm [Super Seeding]
Description:
[center]



Orignal HCensoredV


https://latesthdmovies.club/



General
Unique ID                   : 207102304065743332642768044069454011142 (0x9BCE73F0F044F6BC24EFEE66BAEEDB06)
Complete name               : C:\Users\Administrator\Downloads\New folder\[LatestHDmovies.Club]-Firangi 2017.1080p.HQ.HCensoredV.x264.mkv
Format                      : Matroska
Format version              : Version 4
File size                   : 3.79 GiB
Duration                    : 2 h 32 min
Overall bit rate mode       : Variable
Overall bit rate            : 3 566 kb/s
Movie name                  : LatestHDmovies.Club
Encoded date                : UTC 2019-05-26 06:30:36
Writing application         : mkvmerge v32.0.0 ('Astral Progressions') 32-bit
Writing library             : libebml v1.3.7 + libmatroska v1.5.0

Video
ID                          : 1
Format                      : AVC
Format/Info                 : Advanced Video Codec
Format profile              : [email protected]
Format settings             : CABAC / 4 Ref Frames
Format settings, CABAC      : Yes
Format settings, ReFrames   : 4 frames
Format settings, GOP        : M=4, N=50
Codec ID                    : V_MPEG4/ISO/AVC
Duration                    : 2 h 32 min
Bit rate mode               : Variable
Bit rate                    : 3 500 kb/s
Width                       : 1 920 pixels
Height                      : 1 080 pixels
Display aspect ratio        : 16:9
Frame rate mode             : Constant
Frame rate                  : 25.000 FPS
Standard                    : Component
Color space                 : YUV
Chroma subsampling          : 4:2:0
Bit depth                   : 8 bits
Scan type                   : Progressive
Bits/(Pixel*Frame)          : 0.068
Stream size                 : 3.69 GiB (97%)
Title                       : LatestHDmovies.Club
Default                     : Yes
Forced                      : No
Color range                 : Limited
Color primaries             : BT.709
Transfer characteristics    : BT.709
Matrix coefficients         : BT.709

Audio
ID                          : 2
Format                      : AAC LC
Format/Info                 : Advanced Audio Codec Low Complexity
Codec ID                    : A_AAC-2
Duration                    : 2 h 32 min
Bit rate                    : 93.4 kb/s
Channel(s)                  : 2 channels
Channel layout              : L R
Sampling rate               : 48.0 kHz
Frame rate                  : 46.875 FPS (1024 SPF)
Compression mode            : Lossy
Delay relative to video     : 16 ms
Stream size                 : 102 MiB (3%)
Title                       : LatestHDmovies.Club
Language                    : Hindi
Default                     : Yes
Forced                      : No







[/center]
Category:Bollywood > WebHD
Lang:Hindi
Total Size:3.79 GB
Info Hash:8d33340b2addb2f4b3c4cb544f13e4e8f2f31e10
Added By:LatestHDmovies
Date Added:26-05-2019 09:36:23
Views:159
Hits:24


Ratings:Not Yet Rated (Log in to rate it)

  


Tracker:
udp://tracker.pirateparty.gr:6969/announce

This Torrent also has backup trackers
URLSeedersLeechersCompleted
http://tracker.torrentyorg.pl:80/announce9146
https://tracker.fastdownload.xyz:443/announce210
http://vps02.net.orel.ru:80/announce3229


File List: 


Comments

<< Previous      Next >>
1 - 3

[Report] Posted: 26-05-2019 at 10:14:06
Dus



Uploaded: 2.14 TB
Downloaded: 2.25 GB
Ratio: 973.06

awesome !!  :love  :love

Bwtorrents.tv is coming back ;)

[Report] Posted: 26-05-2019 at 10:30:31
Cinemaghar



Uploaded: 0.00 B
Downloaded: 0.00 B
Ratio: ---

:)  :)
~Bong

[Report] Posted: 26-05-2019 at 11:03:10
MrSky
Aur Time Well Come..


Uploaded: 0.00 B
Downloaded: 7.00 MB
Ratio: 0.00

:love  :love

1 - 3
<< Previous      Next >>


Page Generated In 0.000000 secs.