[Login] or [Signup]

,
Search











Latest Posters
Kadaram Kondan.2019.1080p.AMZN.WeB.DL.H264.DDP.5.1.DusIcTv / Tamil - Movies
Ninu Veedani Needanu Nene.2019.1080p.AMZN.WeB.DL.H264.DDP.5.1.DusIcTv / Telugu - Movies
Nabab 2019 Bangla Movie Shakib Khan HDRip 1GB / Bangla - Movies
Devon Ke Dev... Mahadev (2011) Hindi - {Episodes 224 To 344 } - 720p WEB-DL - x264 - AAC 2.0 - Sun George / Bollywood - WebHD
The Avengers Earths Mightiest Heroes [2010-12] Complete S01 1080p Bluray x 264 Duel Aud [Hin DD 2.0 + Eng DDP 5.1] - Esub Reperza-Cinemaghar  / Hollywood - Anime, Cartoon
The Avengers Earths Mightiest Heroes [2010-12] Complete S01 720p Bluray x 264 Duel Aud [Hin DD 2.0 + Eng DDP 5.1] - Esub Reperza-Cinemaghar  / Hollywood - Anime, Cartoon

Torrent Details For "Pagalpanti [2018] Gujrathi Movie 1080p Untouched Webdl x 264 AVC AAC [Cinemaghar] - xclusi..."

Pagalpanti [2018] Gujrathi Movie 1080p Untouched Webdl x 264 AVC AAC [Cinemaghar] - xclusi...

Download this torrent -- Magnet Download

Health:
Seeds: 0
Leechers: 0
Speed: No Activity
Completed: 7 [Who's Completed] [Request a RE-Seed]
Last Checked: 15-06-2019 07:42:13


Details
Name:Pagalpanti [2018] Gujrathi Movie 1080p Untouched Webdl x 264 AVC AAC [Cinemaghar] - xclusi...
Description:
[center]Pagalpanti [2018] Gujrathi Movie 1080p Untouched Webdl x 264 AVC AAC [Cinemaghar] - xclusive


**XCLUSIVE** - 1ST ON NET





- By Team Cinemaghar



General
Complete name                            : H:\Pagalpanti [2018] Gujrathi Movie 1080p Untouched Webdl x 264 AVC AAC [Cinemaghar] - xclusive\Pagalpanti [2018] Gujrathi Movie 1080p Untouched Webdl x 264 AVC AAC [Cinemaghar] - xclusive .mp4
Format                                   : MPEG-4
Format profile                           : Base Media
Codec ID                                 : isom (isom/iso2/avc1/mp41)
File size                                : 3.73 GiB
Duration                                 : 2 h 28 min
Overall bit rate mode                    : Variable
Overall bit rate                         : 3 592 kb/s
Writing application                      : Lavf58.9.100

Video
ID                                       : 1
Format                                   : AVC
Format/Info                              : Advanced Video Codec
Format profile                           : [email protected]
Format settings                          : CABAC / 4 Ref Frames
Format settings, CABAC                   : Yes
Format settings, Reference frames        : 4 frames
Codec ID                                 : avc1
Codec ID/Info                            : Advanced Video Coding
Duration                                 : 2 h 28 min
Bit rate                                 : 3 500 kb/s
Width                                    : 1 920 pixels
Height                                   : 1 080 pixels
Display aspect ratio                     : 16:9
Frame rate mode                          : Constant
Frame rate                               : 24.000 FPS
Color space                              : YUV
Chroma subsampling                       : 4:2:0
Bit depth                                : 8 bits
Scan type                                : Progressive
Bits/(Pixel*Frame)                       : 0.070
Stream size                              : 3.59 GiB (96%)
Writing library                          : x264 core 148 r2579M 73ae2d1
Encoding settings                        : cabac=1 / ref=2 / deblock=1:0:0 / analyse=0x3:0x113 / me=hex / subme=2 / psy=1 / psy_rd=1.00:0.00 / mixed_ref=0 / me_range=16 / chroma_me=1 / trellis=0 / 8x8dct=1 / cqm=0 / deadzone=21,11 / fast_pskip=1 / chroma_qp_offset=0 / threads=4 / lookahead_threads=1 / sliced_threads=0 / nr=250 / decimate=1 / interlaced=0 / bluray_compat=0 / stitchable=1 / constrained_intra=0 / bframes=3 / b_pyramid=2 / b_adapt=1 / b_bias=0 / direct=1 / weightb=1 / open_gop=0 / weightp=1 / keyint=250 / keyint_min=24 / scenecut=40 / intra_refresh=0 / rc_lookahead=10 / rc=2pass / mbtree=1 / bitrate=3500 / ratetol=1.0 / qcomp=0.60 / qpmin=5 / qpmax=69 / qpstep=4 / cplxblur=20.0 / qblur=0.5 / ip_ratio=1.40 / aq=1:1.00
Codec configuration box                  : avcC

Audio
ID                                       : 2
Format                                   : AAC LC SBR
Format/Info                              : Advanced Audio Codec Low Complexity with Spectral Band Replication
Commercial name                          : HE-AAC
Format settings                          : Implicit
Codec ID                                 : mp4a-40-2
Duration                                 : 2 h 28 min
Bit rate mode                            : Variable
Bit rate                                 : 128 kb/s
Channel(s)                               : 2 channels
Channel layout                           : L R
Sampling rate                            : 48.0 kHz
Frame rate                               : 23.438 FPS (2048 SPF)
Compression mode                         : Lossy
Stream size                              : 135 MiB (4%)
Default                                  : Yes
Alternate group                          : 1


[img] [/img]


[/center]
Category:Other > Other
Lang:Gujarati
Total Size:3.73 GB
Info Hash:f8c40d2103e401563aacbad13ddcaba082c868a4
Added By:Cinemaghar
Date Added:07-06-2019 05:42:40
Views:61
Hits:16


Ratings:Not Yet Rated (Log in to rate it)

  


This Torrent also has backup trackers
URLSeedersLeechersCompleted
http://tracker.torrentyorg.pl:80/announce000
https://tracker.fastdownload.xyz:443/announce000
http://vps02.net.orel.ru:80/announce000


File List: 

Peers List:
No Active Peers


Comments

<< Previous      Next >>
1 - 1

[Report] Posted: 07-06-2019 at 10:32:24
Dus



Uploaded: 2.14 TB
Downloaded: 2.25 GB
Ratio: 973.06

:love

Bwtorrents.tv is coming back ;)

1 - 1
<< Previous      Next >>


Page Generated In 0.000000 secs.