[Login] or [Signup]

,
Search











Latest Posters
Judaai (1997) Hindi - 720p WEB-DL - x264 - AAC 2.0 - ESub - Sun George (Requested) / Bollywood - WebHD
Sundari (2019) Bengali Movie 720p HDRip 900MB x264 / Bangla - Movies
Shiva The Super Hero 3 (2019) Hindi Dubbed 720p HDRip x264 AAC 1GB / Hindi Dubbed - Movies
Manbhanjan (2019) Bengali Movie WEB-DL x264 AAC 750Mb / Bangla - Movies
Future X Cop Returns (2017) Hindi Dubbed Movie   Jacqueline HDRip 750Mb / Hindi Dubbed - Movies
Bhoot (2019) New Horror Hindi Dubbed Movie HDRip 750Mb / Hindi Dubbed - Movies


Torrent Details For "Kanche (2015) 720p UNCUT HDRip x264 Dual Audio [Hindi DD2.0 + Tamil DD2.0] Exclusive BabaH..."

Kanche (2015) 720p UNCUT HDRip x264 Dual Audio [Hindi DD2.0 + Tamil DD2.0] Exclusive BabaH...

Download this torrent -- Magnet Download

Health:
Seeds: 0
Leechers: 0
Speed: No Activity
Completed: 10 [Who's Completed] [Request a RE-Seed]
Last Checked: 12-06-2019 23:24:46


Details
Name:Kanche (2015) 720p UNCUT HDRip x264 Dual Audio [Hindi DD2.0 + Tamil DD2.0] Exclusive BabaH...
Description:
[center]Kanche (2015) 720p UNCUT HDRip x264 Dual Audio [Hindi DD2.0 + Tamil DD2.0] Exclusive BabaHD


Note! This movie Sync By @AJ007 [thanks]

Khiladi Ki Jung (2019)

Exclusive Uploaded By www.BabaHD.com



Source's : Video - Censored & Hindi Audio ORG - @Aditya Movies

Video
ID : 1
Format : AVC
Format/Info : Advanced Video Codec
Format profile : [email protected]
Format settings : CABAC / 4 Ref Frames
Format settings, CABAC : Yes
Format settings, RefFrames : 4 frames
Codec ID : V_MPEG4/ISO/AVC
Duration : 2 h 00 min
Width : 1 280 pixels
Height : 546 pixels
Display aspect ratio : 2.35:1
Frame rate mode : Constant
Frame rate : 25.000 FPS
Color space : YUV
Chroma subsampling : 4:2:0
Bit depth : 8 bits
Scan type : Progressive
Bits/(Pixel*Frame) : 0.074
Stream size : 1.07 GiB (83%)
Writing library : x264 core 148 r2708 86b7198
Default : Yes
Forced : No
Color range : Limited
Color primaries : BT.709
Transfer characteristics : BT.709
Matrix coefficients : BT.709

Audio #1
ID : 2
Format : AC-3
Format/Info : Audio Coding 3
Codec ID : A_AC3
Duration : 2 h 00 min
Bit rate mode : Constant
Bit rate : 192 kb/s
Channel(s) : 2 channels
Channel positions : Front: L R
Sampling rate : 48.0 kHz
Frame rate : 31.250 FPS (1536 SPF)
Bit depth : 16 bits
Compression mode : Lossy
Stream size : 164 MiB (12%)
Language : Hindi
Service kind : Complete Main
Default : Yes
Forced : No

Audio #2
ID : 3
Format : AAC
Format/Info : Advanced Audio Codec
Format profile : LC
Codec ID : A_AAC-2
Duration : 2 h 00 min
Channel(s) : 2 channels
Channel positions : Front: L R
Sampling rate : 48.0 kHz
Frame rate : 46.875 FPS (1024 SPF)
Compression mode : Lossy
Stream size : 52.5 MiB (4%)
Language : Tamil
Default : No
Forced : No



SCREENS




[/center]
Category:South-Dubbed > Movies
Lang:Hindi
Total Size:1.29 GB
Info Hash:33e388dac4bdf066b22897be8c4655b733944f30
Added By:BabaHD
Date Added:08-06-2019 18:49:16
Views:64
Hits:8


Ratings:Not Yet Rated (Log in to rate it)



File List: 

Peers List:
No Active Peers


Comments

NOCOMMENTS

Page Generated In 0.000000 secs.