[Login] or [Signup]

,
Search











Latest Posters
The.Secret.Life.of.Pets.2.2019.720p.HD-TC.Dual.Audio.(Hindi-Eng) / Hollywood - CAM/TS
Alita.Battle.Angel.2019.720p.HDRip.Dual.audio.(hindi-eng) / Hindi Dubbed - Movies
Angry Indian Goddesses (2015) Hindi - 720p WEB-DL -x264 - AAC 5.1 - ESub - Sun George / Bollywood - WebHD
Kaafir (2019) Hindi - {Season 01} - 720p WEB-DL - x264 - AAC 2.0 - Sun George / 18+ - Web Series
Reunion (2019) Bengali Movie 480p HDRip 1GB x264 / Bangla - Movies
Amar Akbhar Anthoni 2019 Hindi Dubbed Movie   Ravi Teja HDRip 750Mb / Hindi Dubbed - Movies


Torrent Details For "Charlie Chaplin 2 (2019) 720p UNCUT HDRip x264 [Hindi DD2.0 + Tamil DD2.0] Exclusive BabaH..."

Charlie Chaplin 2 (2019) 720p UNCUT HDRip x264 [Hindi DD2.0 + Tamil DD2.0] Exclusive BabaH...

Download this torrent -- Magnet Download

Health:
Seeds: 0
Leechers: 0
Speed: No Activity
Completed: 5 [Who's Completed] [Request a RE-Seed]
Last Checked: 17-06-2019 12:53:04


Details
Name:Charlie Chaplin 2 (2019) 720p UNCUT HDRip x264 [Hindi DD2.0 + Tamil DD2.0] Exclusive BabaH...
Description:
[center]Charlie Chaplin 2 (2019) 720p UNCUT HDRip x264 [Hindi DD2.0 + Tamil DD2.0] Exclusive BabaHD

Note! This movie Sync By @BabaHD



Source's : Video - T-Rockers & Hindi Audio ORG - @RK Duggal Studios

Video
ID : 1
Format : AVC
Format/Info : Advanced Video Codec
Format profile : [email protected]
Format settings : CABAC / 4 Ref Frames
Format settings, CABAC : Yes
Format settings, RefFrames : 4 frames
Codec ID : V_MPEG4/ISO/AVC
Duration : 1 h 52 min
Bit rate : 1 648 kb/s
Width : 1 280 pixels
Height : 546 pixels
Display aspect ratio : 2.35:1
Frame rate mode : Constant
Frame rate : 29.970 (30000/1001) FPS
Color space : YUV
Chroma subsampling : 4:2:0
Bit depth : 8 bits
Scan type : Progressive
Bits/(Pixel*Frame) : 0.079
Stream size : 1.28 GiB (83%)
Writing library : x264 core 155 r2901 7d0ff22
Default : Yes
Forced : No
Color range : Limited
Color primaries : BT.709
Transfer characteristics : BT.709
Matrix coefficients : BT.709

Audio #1
ID : 2
Format : AAC
Format/Info : Advanced Audio Codec
Format profile : LC
Codec ID : A_AAC-2
Duration : 1 h 52 min
Bit rate : 196 kb/s
Channel(s) : 2 channels
Channel positions : Front: L R
Sampling rate : 48.0 kHz
Frame rate : 46.875 FPS (1024 SPF)
Compression mode : Lossy
Delay relative to video : -53 ms
Stream size : 158 MiB (10%)
Title : Stereo
Language : Hindi
Default : Yes
Forced : No

Audio #2
ID : 3
Format : AAC
Format/Info : Advanced Audio Codec
Format profile : LC
Codec ID : A_AAC-2
Duration : 1 h 52 min
Bit rate : 128 kb/s
Channel(s) : 2 channels
Channel positions : Front: L R
Sampling rate : 48.0 kHz
Frame rate : 46.875 FPS (1024 SPF)
Compression mode : Lossy
Delay relative to video : -32 ms
Stream size : 103 MiB (7%)
Title : Stereo
Language : Tamil
Default : No
Forced : No


SCREENS


[/center]
Category:South-Dubbed > Movies
Lang:Hindi
Total Size:1.54 GB
Info Hash:532eb4d76bcbf913444a70e51c3d12fa58d37755
Added By:BabaHD
Date Added:10-06-2019 15:27:18
Views:47
Hits:5


Ratings:Not Yet Rated (Log in to rate it)



File List: 

Peers List:
No Active Peers


Comments

NOCOMMENTS

Page Generated In 0.000000 secs.