[Login] or [Signup]

,
Search











Latest Posters
Angry Indian Goddesses (2015) Hindi - 720p WEB-DL -x264 - AAC 5.1 - ESub - Sun George / Bollywood - WebHD
Kaafir (2019) Hindi - {Season 01} - 720p WEB-DL - x264 - AAC 2.0 - Sun George / 18+ - Web Series
Reunion (2019) Bengali Movie 480p HDRip 1GB x264 / Bangla - Movies
Amar Akbhar Anthoni 2019 Hindi Dubbed Movie   Ravi Teja HDRip 750Mb / Hindi Dubbed - Movies
Amar Akbhar Anthoni (2019) 1080p UntoucheD Hindi WEBHD - AVC - AAC - DUSICTV Xclusive.mp4 / South-Dubbed - Movies
Mohan Vadani (Mo) 2019 Hindi 750MB HDTVRip 720p HEVC x265 / Hindi Dubbed - Movies


Torrent Details For "Babys Day Out 1994 x264 720p Esub Amazon 6.0 Dual Audio English Hindi GOPISAHI"

Babys Day Out 1994 x264 720p Esub Amazon 6.0 Dual Audio English Hindi GOPISAHI

Download this torrent -- Magnet Download

Health:
Seeds: 0
Leechers: 0
Completed:
Last Checked: 11-06-2019 13:50:03
External Torrent
UPDATE_STATS


Details
Name:Babys Day Out 1994 x264 720p Esub Amazon 6.0 Dual Audio English Hindi GOPISAHI
Description:
[center]https://www.gopisahi.xyz/



Babys Day Out 1994 x264 720p Esub Amazon 6.0 Dual Audio English Hindi GOPISAHI

Format                         : Matroska
Format version                 : Version 4
File size                      : 910 MiB
Duration                       : 1 h 38 min
Overall bit rate               : 1 288 kb/s
Movie name                     : Babys Day Out 1994 GOPISAHI

Video
Format                         : AVC
Format/Info                    : Advanced Video Codec
Format profile                 : [email protected]
Format settings                : CABAC / 16 Ref Frames
Format settings, CABAC         : Yes
Format settings, Reference fra : 16 frames
Codec ID                       : V_MPEG4/ISO/AVC
Duration                       : 1 h 38 min
Bit rate                       : 899 kb/s
Width                          : 1 280 pixels
Height                         : 692 pixels
Display aspect ratio           : 1.85:1
Frame rate mode                : Constant
Frame rate                     : 23.976 (24000/1001) FPS
Color space                    : YUV
Chroma subsampling             : 4:2:0
Bit depth                      : 8 bits
Scan type                      : Progressive
Bits/(Pixel*Frame)             : 0.042
Stream size                    : 635 MiB (70%)
Title                          : GOPISAHI
Writing library                : x264 core 157 r2935 545de2f

Audio #1
Format                         : AAC LC
Duration                       : 1 h 38 min
Bit rate                       : 192 kb/s
Channel(s)                     : 6 channels
Channel layout                 : L R C Cb Lb Rb
Sampling rate                  : 48.0 kHz
Frame rate                     : 46.875 FPS (1024 SPF)
Compression mode               : Lossy
Delay relative to video        : -63 ms
Stream size                    : 137 MiB (15%)
Title                          : GOPISAHI
Language                       : Hindi

Audio #2
Format                         : AAC LC
Duration                       : 1 h 38 min
Bit rate                       : 192 kb/s
Channel(s)                     : 6 channels
Channel layout                 : L R C Cb Lb Rb
Sampling rate                  : 48.0 kHz
Frame rate                     : 46.875 FPS (1024 SPF)
Compression mode               : Lossy
Delay relative to video        : -63 ms
Stream size                    : 136 MiB (15%)
Title                          : GOPISAHI
Language                       : English

Text
Language                       : English





[/center]
Category:Hindi Dubbed > Movies
Lang:Hindi
Total Size:910.47 MB
Info Hash:b177456d5e7cbe164461900e543d81b23412b386
Added By:gopisahi
Date Added:11-06-2019 13:50:03
Views:40
Hits:8


Ratings:Not Yet Rated (Log in to rate it)


Tracker:
udp://tracker.open-internet.nl:6969/announce

This Torrent also has backup trackers
URLSeedersLeechersCompleted
http://tracker3.itzmx.com:6961/announce000
http://tracker1.itzmx.com:8080/announce000
http://open.acgnxtracker.com:80/announce000
http://tracker4.itzmx.com:2710/announce000
http://tracker.novg.net:6969/announce000
https://tracker.fastdownload.xyz:443/announce000
https://t.quic.ws:443/announce000
http://open.trackerlist.xyz:80/announce000
http://gwp2-v19.rinet.ru:80/announce000
http://opentracker.h4ck.me:6969/announce000
http://carapax.net:6969/announce000
http://tracker.tvunderground.org.ru:3218/announce000
https://tracker.gbitt.info:443/announce000
http://vps02.net.orel.ru:80/announce000
http://tracker.moxing.party:6969/announce000
http://tracker.gbitt.info:80/announce000
http://mail2.zelenaya.net:80/announce000
http://bt1.xxxxbt.cc:6969/announce000
http://t.nyaatracker.com:80/announce000
https://tracker.vectahosting.eu:2053/announce000
https://tracker.parrotsec.org:443/announce000
http://tracker2.itzmx.com:6961/announce000
http://tracker.bz:80/announce000
http://tracker.bt4g.com:2095/announce000
https://1337.abcvg.info:443/announce000
http://tracker.torrentyorg.pl:80/announce000
http://t.acg.rip:6699/announce000
http://share.camoe.cn:8080/announce000
http://bt-tracker.gamexp.ru:2710/announce000


File List: 


Comments

NOCOMMENTS

Page Generated In 0.000000 secs.