[Login] or [Signup]

,
Search











Latest Posters
Angry Indian Goddesses (2015) Hindi - 720p WEB-DL -x264 - AAC 5.1 - ESub - Sun George / Bollywood - WebHD
Kaafir (2019) Hindi - {Season 01} - 720p WEB-DL - x264 - AAC 2.0 - Sun George / 18+ - Web Series
Reunion (2019) Bengali Movie 480p HDRip 1GB x264 / Bangla - Movies
Amar Akbhar Anthoni 2019 Hindi Dubbed Movie   Ravi Teja HDRip 750Mb / Hindi Dubbed - Movies
Amar Akbhar Anthoni (2019) 1080p UntoucheD Hindi WEBHD - AVC - AAC - DUSICTV Xclusive.mp4 / South-Dubbed - Movies
Mohan Vadani (Mo) 2019 Hindi 750MB HDTVRip 720p HEVC x265 / Hindi Dubbed - Movies


Torrent Details For "Dalapathi (2018) 720p HDTV-Rip x264 [Hindi DD2.0 + Kannada] Exclusive BabaHD"

Dalapathi (2018) 720p HDTV-Rip x264 [Hindi DD2.0 + Kannada] Exclusive BabaHD

Download this torrent -- Magnet Download

Health:
Seeds: 0
Leechers: 0
Speed: No Activity
Completed: 5 [Who's Completed] [Request a RE-Seed]
Last Checked: 13-06-2019 04:01:08


Details
Name:Dalapathi (2018) 720p HDTV-Rip x264 [Hindi DD2.0 + Kannada] Exclusive BabaHD
Description:
[center]Dalapathi (2018) 720p HCensoredV-Rip x264 Dual Audio [Hindi DD2.0 + Kannada] Exclusive BabaHD

Exclusive Uploaded By www.BabaHD.com



Source's : Video - TMV Proper True HCensoredV [Lols] :P  & Hindi Audio - @BabaHD

Video
ID : 1
Format : AVC
Format/Info : Advanced Video Codec
Format profile : [email protected]
Format settings : CABAC / 4 Ref Frames
Format settings, CABAC : Yes
Format settings, RefFrames : 4 frames
Codec ID : V_MPEG4/ISO/AVC
Duration : 2 h 17 min
Bit rate : 1 422 kb/s
Width : 1 280 pixels
Height : 544 pixels
Display aspect ratio : 2.35:1
Frame rate mode : Variable
Frame rate : 22.999 FPS
Color space : YUV
Chroma subsampling : 4:2:0
Bit depth : 8 bits
Scan type : Progressive
Bits/(Pixel*Frame) : 0.089
Stream size : 1.37 GiB (86%)
Title : BabaHD
Writing library : x264 core 155 r2901 7d0ff22
Default : Yes
Forced : No
Color range : Limited
Color primaries : BT.709
Transfer characteristics : BT.709
Matrix coefficients : BT.709

Audio #1
ID : 2
Format : AAC
Format/Info : Advanced Audio Codec
Format profile : LC
Codec ID : A_AAC-2
Duration : 2 h 17 min
Bit rate : 163 kb/s
Channel(s) : 2 channels
Channel positions : Front: L R
Sampling rate : 48.0 kHz
Frame rate : 46.875 FPS (1024 SPF)
Compression mode : Lossy
Stream size : 161 MiB (10%)
Language : Hindi
Default : Yes
Forced : No

Audio #2
ID : 3
Format : AAC
Format/Info : Advanced Audio Codec
Format profile : LC
Codec ID : A_AAC-2
Duration : 2 h 17 min
Channel(s) : 2 channels
Channel positions : Front: L R
Sampling rate : 44.1 kHz
Frame rate : 43.066 FPS (1024 SPF)
Compression mode : Lossy
Stream size : 63.7 MiB (4%)
Language : Kannada
Default : No
Forced : No



SCREENS




[/center]
Category:South-Dubbed > Movies
Lang:Hindi
Total Size:1.59 GB
Info Hash:b8c72ab03dc2c93ce59f393272af3941a1c912f1
Added By:BabaHD
Date Added:11-06-2019 14:13:16
Views:52
Hits:10


Ratings:Not Yet Rated (Log in to rate it)


This Torrent also has backup trackers
URLSeedersLeechersCompleted
http://tracker1.itzmx.com:8080/announce000
http://tracker3.itzmx.com:6961/announce000


File List: 

Peers List:
No Active Peers


Comments

NOCOMMENTS

Page Generated In 0.000000 secs.