[Login] or [Signup]

,
Search











Latest Posters
Kadaram Kondan.2019.1080p.AMZN.WeB.DL.H264.DDP.5.1.DusIcTv / Tamil - Movies
Ninu Veedani Needanu Nene.2019.1080p.AMZN.WeB.DL.H264.DDP.5.1.DusIcTv / Telugu - Movies
Nabab 2019 Bangla Movie Shakib Khan HDRip 1GB / Bangla - Movies
Devon Ke Dev... Mahadev (2011) Hindi - {Episodes 224 To 344 } - 720p WEB-DL - x264 - AAC 2.0 - Sun George / Bollywood - WebHD
The Avengers Earths Mightiest Heroes [2010-12] Complete S01 1080p Bluray x 264 Duel Aud [Hin DD 2.0 + Eng DDP 5.1] - Esub Reperza-Cinemaghar  / Hollywood - Anime, Cartoon
The Avengers Earths Mightiest Heroes [2010-12] Complete S01 720p Bluray x 264 Duel Aud [Hin DD 2.0 + Eng DDP 5.1] - Esub Reperza-Cinemaghar  / Hollywood - Anime, Cartoon

Torrent Details For "Maharshi (2019) Telugu Movie - 720p - HDRip[x264 - AC3(5.1Ch)] - 2GB "

Maharshi (2019) Telugu Movie - 720p - HDRip[x264 - AC3(5.1Ch)] - 2GB

Download this torrent -- Magnet Download

Health:
Seeds: 0
Leechers: 0
Speed: No Activity
Completed: 1 [Who's Completed] [Request a RE-Seed]
Last Checked: 10-07-2019 04:18:28


Details
Name:Maharshi (2019) Telugu Movie - 720p - HDRip[x264 - AC3(5.1Ch)] - 2GB
Description:
      Maharshi (2019) Telugu Movie - 720p -
HDRip[x264 - AC3(5.1Ch)] - 2GB  
 





General
Format                                   : Matroska
Format version                           : Version 4
File size                                : 2.00 GiB
Duration                                 : 3 h 14 min

Video
ID                                       : 1
Format                                   : AVC
Format/Info                              : Advanced Video Codec
Format profile                           : [email protected]
Format settings                          : CABAC / 4 Ref Frames
Format settings, CABAC                   : Yes
Format settings, Reference frames        : 4 frames
Codec ID                                 : V_MPEG4/ISO/AVC
Duration                                 : 3 h 14 min
Bit rate                                 : 1 281 kb/s
Width                                    : 1 280 pixels
Height                                   : 544 pixels
Display aspect ratio                     : 2.35:1
Frame rate mode                          : Constant
Frame rate                               : 25.000 FPS
Color space                              : YUV
Chroma subsampling                       : 4:2:0
Bit depth                                : 8 bits
Scan type                                : Progressive
Bits/(Pixel*Frame)                       : 0.074
Stream size                              : 1.74 GiB (87%)

Audio
ID                                       : 2
Format                                   : AC-3
Format/Info                              : Audio Coding 3
Commercial name                          : Dolby Digital
Codec ID                                 : A_AC3
Duration                                 : 3 h 14 min
Bit rate mode                            : Constant
Bit rate                                 : 192 kb/s
Channel(s)                               : 6 channels
Channel layout                           : L R C LFE Ls Rs
Sampling rate                            : 48.0 kHz
Stream size                              : 267 MiB (13%)
Language                                 : Telugu

  Thumbnail    





Category:Other > Other
Lang:Telugu
Total Size:2.00 GB
Info Hash:a2d8f09915ca17df6ddcaa29079069bb84f482f1
Added By:Optimus
Date Added:03-07-2019 03:13:36
Views:36
Hits:8


Ratings:Not Yet Rated (Log in to rate it)

  


This Torrent also has backup trackers
URLSeedersLeechersCompleted
http://tracker.torrentyorg.pl:80/announce000
https://tracker.fastdownload.xyz:443/announce000
http://vps02.net.orel.ru:80/announce000


File List: 

Peers List:
No Active Peers


Comments

NOCOMMENTS

Page Generated In 0.000000 secs.