[Login] or [Signup]

,
Search











Latest Posters
Okka Ammayi Thappa (2016) HDRip x264 HiNdi Dubb AAC[PherariMon] / South-Dubbed - Movies
VA - New Music Releases Week 42 of 2019 (Mp3 320kbps Songs) [PMEDIA] / Hollywood - Music
Jaathre (2015) HDRip x264 HiNdi Dubb AAC[PherariMon] / Softwares - Mac and Other OS
Bawali Unlimited (2012) Bengali Movie - HDRip[x264 - AAC(2.1Ch) / Bangla - Movies
Thadam 2019 Hindi Dubbed Movie HDRip 700MB / Hindi Dubbed - Movies
Tyson - Ek Police Officer 2019 Hindi Dubbed Movie HDRip 700MB / Hindi Dubbed - Movies

Torrent Details For "7th Day (2014) 720p UNCUT HDRip x264 Dual Audio [Hindi DD2.0 + Malayalam DD2.0] Exclusive ..."

7th Day (2014) 720p UNCUT HDRip x264 Dual Audio [Hindi DD2.0 + Malayalam DD2.0] Exclusive ...

Download this torrent -- Magnet Download

Health:
Seeds: 0
Leechers: 0
Speed: No Activity
Completed: 9 [Who's Completed] [Request a RE-Seed]
Last Checked: 12-08-2019 06:59:35


Details
Name:7th Day (2014) 720p UNCUT HDRip x264 Dual Audio [Hindi DD2.0 + Malayalam DD2.0] Exclusive ...
Description:
[center]7th Day (2014) 720p UNCUT HDRip x264 [Hindi DD2.0 + Malayalam DD2.0] Exclusive BabaHD

Join Us For More WWW.BABAHD.COM




Video
ID : 1
Format : AVC
Format/Info : Advanced Video Codec
Format profile : [email protected]
Format settings : CABAC / 5 Ref Frames
Format settings, CABAC : Yes
Format settings, RefFrames : 5 frames
Codec ID : V_MPEG4/ISO/AVC
Duration : 2 h 8 min
Bit rate : 1 300 kb/s
Width : 1 280 pixels
Height : 544 pixels
Display aspect ratio : 2.35:1
Frame rate mode : Constant
Frame rate : 25.000 FPS
Color space : YUV
Chroma subsampling : 4:2:0
Bit depth : 8 bits
Scan type : Progressive
Bits/(Pixel*Frame) : 0.075
Stream size : 1.18 GiB (84%)
Writing library : x264 core
Default : Yes
Forced : No
Color range : Limited
Color primaries : BT.709
Transfer characteristics : BT.709
Matrix coefficients : BT.709

Audio #1
ID : 2
Format : AC-3
Format/Info : Audio Coding 3
Codec ID : A_AC3
Duration : 2 h 8 min
Bit rate mode : Constant
Bit rate : 192 kb/s
Channel(s) : 2 channels
Channel positions : Front: L R
Sampling rate : 48.0 kHz
Frame rate : 31.250 FPS (1536 SPF)
Bit depth : 16 bits
Compression mode : Lossy
Delay relative to video : -101 ms
Stream size : 177 MiB (12%)
Language : Hindi
Service kind : Complete Main
Default : Yes
Forced : Yes

Audio #2
ID : 3
Format : AAC
Format/Info : Advanced Audio Codec
Format profile : HE-AAC / LC
Format settings : Implicit
Codec ID : A_AAC-2
Duration : 2 h 8 min
Channel(s) : 2 channels
Channel positions : Front: L R
Sampling rate : 48.0 kHz / 24.0 kHz
Frame rate : 23.438 FPS (1024 SPF)
Compression mode : Lossy
Delay relative to video : -101 ms
Stream size : 58.9 MiB (4%)
Language : Malayalam
Default : No
Forced : No[b]



SCREENS[/b]








[/center]
Category:South-Dubbed > Movies
Lang:Hindi
Total Size:1.41 GB
Info Hash:9f97e8afd0a68b7993060d96c8bedf14efa5bcd0
Added By:BabaHD
Date Added:05-07-2019 08:45:41
Views:106
Hits:21


Ratings:Not Yet Rated (Log in to rate it)

  


This Torrent also has backup trackers
URLSeedersLeechersCompleted
http://tracker1.itzmx.com:8080/announce000
http://tracker3.itzmx.com:6961/announce000


File List: 

Peers List:
No Active Peers


Comments

NOCOMMENTS

Page Generated In 0.000000 secs.