[Login] or [Signup]

,
Search











Latest Posters
Okka Ammayi Thappa (2016) HDRip x264 HiNdi Dubb AAC[PherariMon] / South-Dubbed - Movies
VA - New Music Releases Week 42 of 2019 (Mp3 320kbps Songs) [PMEDIA] / Hollywood - Music
Jaathre (2015) HDRip x264 HiNdi Dubb AAC[PherariMon] / Softwares - Mac and Other OS
Bawali Unlimited (2012) Bengali Movie - HDRip[x264 - AAC(2.1Ch) / Bangla - Movies
Thadam 2019 Hindi Dubbed Movie HDRip 700MB / Hindi Dubbed - Movies
Tyson - Ek Police Officer 2019 Hindi Dubbed Movie HDRip 700MB / Hindi Dubbed - Movies

Torrent Details For "E Ee (2017) 720p UNCUT HDRip x264 E-Subs Dual Audio [Hindi DD2.0 + Telugu DD2.0] Exclusive..."

E Ee (2017) 720p UNCUT HDRip x264 E-Subs Dual Audio [Hindi DD2.0 + Telugu DD2.0] Exclusive...

Download this torrent -- Magnet Download

Health:
Seeds: 0
Leechers: 0
Speed: No Activity
Completed: 4 [Who's Completed] [Request a RE-Seed]
Last Checked: 03-09-2019 00:40:55


Details
Name:E Ee (2017) 720p UNCUT HDRip x264 E-Subs Dual Audio [Hindi DD2.0 + Telugu DD2.0] Exclusive...
Description:
[center]E Ee (2017) 720p UNCUT HDRip x264 E-Subs Dual Audio [Hindi DD2.0 + Telugu DD2.0] Exclusive BabaHD

Join Us For More www.BabaHD.com





Source's : Video - Bwt  & Hindi Audio @BabaHD.com

Video
ID : 1
Format : AVC
Format/Info : Advanced Video Codec
Format profile : [email protected]
Format settings : CABAC / 5 Ref Frames
Format settings, CABAC : Yes
Format settings, RefFrames : 5 frames
Codec ID : V_MPEG4/ISO/AVC
Duration : 2 h 28 min
Bit rate : 1 200 kb/s
Width : 1 280 pixels
Height : 532 pixels
Display aspect ratio : 2.40:1
Frame rate mode : Constant
Frame rate : 24.000 FPS
Color space : YUV
Chroma subsampling : 4:2:0
Bit depth : 8 bits
Scan type : Progressive
Bits/(Pixel*Frame) : 0.073
Stream size : 1.23 GiB (79%)
Writing library : x264 core
Default : Yes
Forced : No
Color range : Limited
Color primaries : BT.709
Transfer characteristics : BT.709
Matrix coefficients : BT.709

Audio #1
ID : 2
Format : AC-3
Format/Info : Audio Coding 3
Codec ID : A_AC3
Duration : 2 h 28 min
Bit rate mode : Constant
Bit rate : 192 kb/s
Channel(s) : 2 channels
Channel positions : Front: L R
Sampling rate : 48.0 kHz
Frame rate : 31.250 FPS (1536 SPF)
Bit depth : 16 bits
Compression mode : Lossy
Delay relative to video : -21 ms
Stream size : 204 MiB (13%)
Language : Hindi
Service kind : Complete Main
Default : Yes
Forced : Yes

Audio #2
ID : 3
Format : AAC
Format/Info : Advanced Audio Codec
Format profile : LC
Codec ID : A_AAC-2
Duration : 2 h 28 min
Bit rate : 125 kb/s
Channel(s) : 2 channels
Channel positions : Front: L R
Sampling rate : 48.0 kHz
Frame rate : 46.875 FPS (1024 SPF)
Compression mode : Lossy
Delay relative to video : -21 ms
Stream size : 133 MiB (8%)
Language : Telugu
Default : No
Forced : No

Text
ID : 4
Format : UTF-8
Codec ID : S_TEXT/UTF8
Codec ID/Info : UTF-8 Plain Text
Duration : 2 h 21 min
Bit rate : 67 b/s
Count of elements : 1800
Stream size : 70.2 KiB (0%)
Title : SDH
Language : English
Default : Yes
Forced : No




SCREENS










[/center]
Category:South-Dubbed > Movies
Lang:Hindi
Total Size:1.57 GB
Info Hash:4272ebc4e9dec16719e636e89de957cee016975e
Added By:BabaHD
Date Added:05-07-2019 08:47:02
Views:86
Hits:19


Ratings:Not Yet Rated (Log in to rate it)

  


This Torrent also has backup trackers
URLSeedersLeechersCompleted
http://tracker1.itzmx.com:8080/announce000
http://tracker3.itzmx.com:6961/announce000


File List: 

Peers List:
No Active Peers


Comments

NOCOMMENTS

Page Generated In 0.000000 secs.