[Login] or [Signup]

,
Search











Latest Posters
Valiyavan (2019 - Valiyavan South Hindi Dubbed)  - 720p - HD Rip[x264 - AC3(5.1Ch)] - 1.4 GB  / Hindi Dubbed - Movies
Kaashi in Search of Ganga (2019) Hindi - 720p WEB-DL - x264 - AAC 2.0 - Sun George / Bollywood - WebHD
Bari Tar Bangla 2013 Bengali Movie DVDRip x264 aac / Bangla - Movies
Seetharama Kalyana (2019 - Seetharama Kalyana South  Hindi Dubbed) - 720p - HDTV Rip[x264 - AAC3(5.1Ch)] - 1.4 GB / Hindi Dubbed - Movies
Mukherjee Dar Bou (2019) Bengali Movie - 720p -  HDTV Rip[x264 - AC3(5.1Ch)] - 1.4 GB / Bangla - Movies
Kidnap 2019 Bengali Movie Ft Dev  720p HDRip 700MB x264 / Bangla - Movies

Torrent Details For "Pakhi [2018] Hindi Movie 1080p Untouched Webdl x 264 AVC AAC [Cinemaghar] - Xclusive"

Pakhi [2018] Hindi Movie 1080p Untouched Webdl x 264 AVC AAC [Cinemaghar] - Xclusive

Download this torrent -- Magnet Download

Health:
Seeds: 0
Leechers: 0
Speed: No Activity
Completed: 10 [Who's Completed] [Request a RE-Seed]
Last Checked: 21-07-2019 09:00:36


Details
Name:Pakhi [2018] Hindi Movie 1080p Untouched Webdl x 264 AVC AAC [Cinemaghar] - Xclusive
Description:
[center] Pakhi [2018] Hindi Movie 1080p Untouched Webdl x 264 AVC AAC [Cinemaghar] - Xclusive


1st On Net - xclusive





- By Team Cinemaghar



General
Complete name                            : C:\Users\arinjoy\Downloads\Pakhi [2018] Hindi Movie 1080p Untouched Webdl x 264 AVC AAC [Cinemaghar] - Xclusive .mp4
Format                                   : MPEG-4
Format profile                           : Base Media
Codec ID                                 : isom (isom/iso2/avc1/mp41)
File size                                : 1.45 GiB
Duration                                 : 1 h 34 min
Overall bit rate                         : 2 199 kb/s
Writing application                      : Lavf56.30.100

Video
ID                                       : 1
Format                                   : AVC
Format/Info                              : Advanced Video Codec
Format profile                           : [email protected]
Format settings                          : CABAC / 4 Ref Frames
Format settings, CABAC                   : Yes
Format settings, Reference frames        : 4 frames
Codec ID                                 : avc1
Codec ID/Info                            : Advanced Video Coding
Duration                                 : 1 h 34 min
Bit rate                                 : 2 200 kb/s
Width                                    : 1 920 pixels
Height                                   : 1 080 pixels
Display aspect ratio                     : 16:9
Frame rate mode                          : Constant
Frame rate                               : 25.000 FPS
Color space                              : YUV
Chroma subsampling                       : 4:2:0
Bit depth                                : 8 bits
Scan type                                : Progressive
Bits/(Pixel*Frame)                       : 0.042
Stream size                              : 1.39 GiB (95%)
Writing library                          : x264 core 152 r2854 e9a5903
Encoding settings                        : cabac=1 / ref=3 / deblock=1:0:0 / analyse=0x3:0x113 / me=hex / subme=7 / psy=1 / psy_rd=1.00:0.00 / mixed_ref=1 / me_range=16 / chroma_me=1 / trellis=1 / 8x8dct=1 / cqm=0 / deadzone=21,11 / fast_pskip=1 / chroma_qp_offset=-2 / threads=34 / lookahead_threads=5 / sliced_threads=0 / nr=0 / decimate=1 / interlaced=0 / bluray_compat=0 / constrained_intra=0 / bframes=3 / b_pyramid=2 / b_adapt=1 / b_bias=0 / direct=1 / weightb=1 / open_gop=0 / weightp=2 / keyint=50 / keyint_min=26 / scenecut=0 / intra_refresh=0 / rc_lookahead=40 / rc=abr / mbtree=1 / bitrate=2200 / ratetol=1.0 / qcomp=0.60 / qpmin=0 / qpmax=69 / qpstep=4 / vbv_maxrate=2860 / vbv_bufsize=3300 / nal_hrd=none / filler=0 / ip_ratio=1.40 / aq=1:1.00
Codec configuration box                  : avcC

Audio
ID                                       : 2
Format                                   : AAC LC
Format/Info                              : Advanced Audio Codec Low Complexity
Codec ID                                 : mp4a-40-2
Duration                                 : 1 h 34 min
Bit rate mode                            : Constant
Bit rate                                 : 93.5 kb/s
Channel(s)                               : 2 channels
Channel layout                           : L R
Sampling rate                            : 48.0 kHz
Frame rate                               : 46.875 FPS (1024 SPF)
Compression mode                         : Lossy
Stream size                              : 63.3 MiB (4%)
Default                                  : Yes
Alternate group                          : 1






[/center]
Category:Bollywood > WebHD
Lang:Hindi
Total Size:1.45 GB
Info Hash:e3c4687d8778193f49de7c4b43d905a65d814939
Added By:Cinemaghar
Date Added:09-07-2019 21:11:28
Views:83
Hits:38


Ratings:Not Yet Rated (Log in to rate it)

  


This Torrent also has backup trackers
URLSeedersLeechersCompleted
http://tracker.torrentyorg.pl:80/announce000
https://tracker.fastdownload.xyz:443/announce000
http://vps02.net.orel.ru:80/announce000


File List: 

Peers List:
No Active Peers


Comments

NOCOMMENTS

Page Generated In 0.000000 secs.