[Login] or [Signup]

,
Search











Latest Posters
Valiyavan (2019 - Valiyavan South Hindi Dubbed)  - 720p - HD Rip[x264 - AC3(5.1Ch)] - 1.4 GB  / Hindi Dubbed - Movies
Kaashi in Search of Ganga (2019) Hindi - 720p WEB-DL - x264 - AAC 2.0 - Sun George / Bollywood - WebHD
Bari Tar Bangla 2013 Bengali Movie DVDRip x264 aac / Bangla - Movies
Seetharama Kalyana (2019 - Seetharama Kalyana South  Hindi Dubbed) - 720p - HDTV Rip[x264 - AAC3(5.1Ch)] - 1.4 GB / Hindi Dubbed - Movies
Mukherjee Dar Bou (2019) Bengali Movie - 720p -  HDTV Rip[x264 - AC3(5.1Ch)] - 1.4 GB / Bangla - Movies
Kidnap 2019 Bengali Movie Ft Dev  720p HDRip 700MB x264 / Bangla - Movies

Torrent Details For "The Great Outdoors 1998 x264 720p Esub BluRay Dual Audio English Hindi GOPISAHI"

The Great Outdoors 1998 x264 720p Esub BluRay Dual Audio English Hindi GOPISAHI

Download this torrent -- Magnet Download

Health:
Seeds: 0
Leechers: 0
Completed:
Last Checked: 10-07-2019 02:20:05
External Torrent
UPDATE_STATS


Details
Name:The Great Outdoors 1998 x264 720p Esub BluRay Dual Audio English Hindi GOPISAHI
Description:
[center]
The Great Outdoors 1998 x264 720p Esub BluRay Dual Audio English Hindi GOPISAHI





Format                         : Matroska

Format version                 : Version 4

File size                      : 708 MiB

Duration                       : 1 h 30 min

Overall bit rate               : 1 095 kb/s

Movie name                     : The Great Outdoors 1998 GOPISAHI


Video

Format                         : AVC

Format/Info                    : Advanced Video Codec

Format profile                 : [email protected]

Codec ID                       : V_MPEG4/ISO/AVC

Duration                       : 1 h 30 min

Bit rate                       : 900 kb/s

Width                          : 1 280 pixels

Height                         : 694 pixels

Display aspect ratio           : 1.85:1

Frame rate mode                : Constant

Frame rate                     : 23.976 (24000/1001) FPS

Color space                    : YUV

Chroma subsampling             : 4:2:0

Bit depth                      : 8 bits

Scan type                      : Progressive

Bits/(Pixel*Frame)             : 0.042

Stream size                    : 582 MiB (82%)

Title                          : GOPISAHI

Writing library                : x264 core 148


Audio #1

Format                         : AAC LC

Duration                       : 1 h 30 min

Bit rate                       : 96.0 kb/s

Channel(s)                     : 2 channels

Channel layout                 : L R

Sampling rate                  : 48.0 kHz

Frame rate                     : 46.875 FPS (1024 SPF)

Compression mode               : Lossy

Delay relative to video        : -43 ms

Stream size                    : 62.2 MiB (9%)

Title                          : GOPISAHI

Language                       : Hindi


Audio #2

Format                         : AAC LC

Duration                       : 1 h 30 min

Bit rate                       : 96.0 kb/s

Channel(s)                     : 2 channels

Channel layout                 : L R

Sampling rate                  : 48.0 kHz

Frame rate                     : 46.875 FPS (1024 SPF)

Compression mode               : Lossy

Delay relative to video        : -43 ms

Stream size                    : 62.2 MiB (9%)

Title                          : GOPISAHI

Language                       : English

Default                        : No

Forced                         : No





[/center]
Category:Hindi Dubbed > Movies
Lang:Hindi
Total Size:707.96 MB
Info Hash:8cc051e9826dea5d16c27de4743816280162ad54
Added By:gopisahi
Date Added:10-07-2019 02:20:05
Views:26
Hits:2


Ratings:Not Yet Rated (Log in to rate it)


Tracker:
udp://tracker.open-internet.nl:6969/announce

This Torrent also has backup trackers
URLSeedersLeechersCompleted
http://tracker3.itzmx.com:6961/announce000
http://tracker1.itzmx.com:8080/announce000
http://open.acgnxtracker.com:80/announce000
http://tracker4.itzmx.com:2710/announce000
http://tracker.novg.net:6969/announce000
https://tracker.fastdownload.xyz:443/announce000
https://t.quic.ws:443/announce000
http://open.trackerlist.xyz:80/announce000
http://gwp2-v19.rinet.ru:80/announce000
http://opentracker.h4ck.me:6969/announce000
http://carapax.net:6969/announce000
http://tracker.tvunderground.org.ru:3218/announce000
https://tracker.gbitt.info:443/announce000
http://vps02.net.orel.ru:80/announce000
http://tracker.moxing.party:6969/announce000
http://tracker.gbitt.info:80/announce000
http://mail2.zelenaya.net:80/announce000
http://bt1.xxxxbt.cc:6969/announce000
http://t.nyaatracker.com:80/announce000
https://tracker.vectahosting.eu:2053/announce000
https://tracker.parrotsec.org:443/announce000
http://tracker2.itzmx.com:6961/announce000
http://tracker.bz:80/announce000
http://tracker.bt4g.com:2095/announce000
https://1337.abcvg.info:443/announce000
http://tracker.torrentyorg.pl:80/announce000
http://t.acg.rip:6699/announce000
http://share.camoe.cn:8080/announce000
http://bt-tracker.gamexp.ru:2710/announce000


File List: 


Comments

NOCOMMENTS

Page Generated In 0.000000 secs.