[Login] or [Signup]

,
Search











Latest Posters
Valiyavan (2019 - Valiyavan South Hindi Dubbed)  - 720p - HD Rip[x264 - AC3(5.1Ch)] - 1.4 GB  / Hindi Dubbed - Movies
Kaashi in Search of Ganga (2019) Hindi - 720p WEB-DL - x264 - AAC 2.0 - Sun George / Bollywood - WebHD
Bari Tar Bangla 2013 Bengali Movie DVDRip x264 aac / Bangla - Movies
Seetharama Kalyana (2019 - Seetharama Kalyana South  Hindi Dubbed) - 720p - HDTV Rip[x264 - AAC3(5.1Ch)] - 1.4 GB / Hindi Dubbed - Movies
Mukherjee Dar Bou (2019) Bengali Movie - 720p -  HDTV Rip[x264 - AC3(5.1Ch)] - 1.4 GB / Bangla - Movies
Kidnap 2019 Bengali Movie Ft Dev  720p HDRip 700MB x264 / Bangla - Movies

Torrent Details For "Alita Battle Angel 2019 x264 720p Esub BluRay Dual Audio English Hindi GOPISAHI"

Alita Battle Angel 2019 x264 720p Esub BluRay Dual Audio English Hindi GOPISAHI

Download this torrent -- Magnet Download

Health:
Seeds: 0
Leechers: 0
Completed:
Last Checked: 10-07-2019 03:31:24
External Torrent
UPDATE_STATS


Details
Name:Alita Battle Angel 2019 x264 720p Esub BluRay Dual Audio English Hindi GOPISAHI
Description:
[center]

Alita Battle Angel 2019 x264 720p Esub BluRay Dual Audio English Hindi GOPISAHI


Format                         : Matroska

Format version                 : Version 4

File size                      : 1.02 GiB

Duration                       : 2 h 2 min

Overall bit rate               : 1 190 kb/s

Movie name                     : Alita Battle Angel 2019 GOPISAHI


Video

Format                         : AVC

Format/Info                    : Advanced Video Codec

Format profile                 : [email protected]

Codec ID                       : V_MPEG4/ISO/AVC

Duration                       : 2 h 2 min

Bit rate                       : 899 kb/s

Width                          : 1 280 pixels

Height                         : 536 pixels

Display aspect ratio           : 2.40:1

Frame rate mode                : Constant

Frame rate                     : 24.000 FPS

Color space                    : YUV

Chroma subsampling             : 4:2:0

Bit depth                      : 8 bits

Scan type                      : Progressive

Bits/(Pixel*Frame)             : 0.055

Stream size                    : 785 MiB (76%)

Title                          : GOPISAHI

Writing library                : x264 core 157 r2935 545de2f


Audio #1

Format                         : AAC LC

Duration                       : 2 h 1 min

Bit rate                       : 192 kb/s

Channel(s)                     : 6 channels

Channel layout                 : C L R Ls Rs LFE

Sampling rate                  : 48.0 kHz

Frame rate                     : 46.875 FPS (1024 SPF)

Compression mode               : Lossy

Delay relative to video        : -21 ms

Stream size                    : 168 MiB (16%)

Title                          : GOPISAHI

Language                       : Hindi


Audio #2

Format                         : AAC LC

Duration                       : 2 h 1 min

Bit rate                       : 96.0 kb/s

Channel(s)                     : 2 channels

Channel layout                 : L R

Sampling rate                  : 48.0 kHz

Frame rate                     : 46.875 FPS (1024 SPF)

Compression mode               : Lossy

Delay relative to video        : 22 ms

Stream size                    : 84.1 MiB (8%)

Title                          : GOPISAHI

Language                       : English


Text

Language                       : English


Menu

00:00:00.000                   : :Chapter 1

00:03:29.750                   : :Chapter 2

00:07:52.833                   : :Chapter 3

00:10:09.000                   : :Chapter 4

00:13:07.708                   : :Chapter 5

00:15:07.750                   : :Chapter 6

00:18:05.542                   : :Chapter 7

00:22:59.708                   : :Chapter 8

00:25:36.333                   : :Chapter 9

00:31:41.917                   : :Chapter 10

00:33:30.208                   : :Chapter 11

00:36:33.833                   : :Chapter 12

00:38:32.042                   : :Chapter 13

00:42:06.500                   : :Chapter 14

00:45:59.208                   : :Chapter 15

00:48:32.500                   : :Chapter 16

00:52:58.042                   : :Chapter 17

00:55:15.500                   : :Chapter 18

01:00:40.750                   : :Chapter 19

01:02:57.708                   : :Chapter 20

01:05:17.792                   : :Chapter 21

01:10:51.500                   : :Chapter 22

01:13:38.292                   : :Chapter 23

01:16:36.208                   : :Chapter 24

01:18:53.208                   : :Chapter 25

01:22:49.292                   : :Chapter 26

01:24:56.333                   : :Chapter 27

01:28:26.333                   : :Chapter 28

01:33:19.542                   : :Chapter 29

01:36:09.750                   : :Chapter 30

01:41:55.667                   : :Chapter 31

01:45:24.417                   : :Chapter 32

01:48:17.458                   : :Chapter 33

01:51:44.625                   : :Chapter 34

01:54:44.667                   : :Chapter 35

01:56:52.500                   : :Chapter 36







[/center]
Category:Hindi Dubbed > Movies
Lang:Hindi
Total Size:1.02 GB
Info Hash:bfeca394d3888c9d488ca5e002f97ff90bd8b28d
Added By:gopisahi
Date Added:10-07-2019 03:31:24
Views:14
Hits:2


Ratings:Not Yet Rated (Log in to rate it)


Tracker:
udp://tracker.open-internet.nl:6969/announce

This Torrent also has backup trackers
URLSeedersLeechersCompleted
http://tracker3.itzmx.com:6961/announce000
http://tracker1.itzmx.com:8080/announce000
http://open.acgnxtracker.com:80/announce000
http://tracker4.itzmx.com:2710/announce000
http://tracker.novg.net:6969/announce000
https://tracker.fastdownload.xyz:443/announce000
https://t.quic.ws:443/announce000
http://open.trackerlist.xyz:80/announce000
http://gwp2-v19.rinet.ru:80/announce000
http://opentracker.h4ck.me:6969/announce000
http://carapax.net:6969/announce000
http://tracker.tvunderground.org.ru:3218/announce000
https://tracker.gbitt.info:443/announce000
http://vps02.net.orel.ru:80/announce000
http://tracker.moxing.party:6969/announce000
http://tracker.gbitt.info:80/announce000
http://mail2.zelenaya.net:80/announce000
http://bt1.xxxxbt.cc:6969/announce000
http://t.nyaatracker.com:80/announce000
https://tracker.vectahosting.eu:2053/announce000
https://tracker.parrotsec.org:443/announce000
http://tracker2.itzmx.com:6961/announce000
http://tracker.bz:80/announce000
http://tracker.bt4g.com:2095/announce000
https://1337.abcvg.info:443/announce000
http://tracker.torrentyorg.pl:80/announce000
http://t.acg.rip:6699/announce000
http://share.camoe.cn:8080/announce000
http://bt-tracker.gamexp.ru:2710/announce000


File List: 


Comments

NOCOMMENTS

Page Generated In 0.000000 secs.