[Login] or [Signup]

,
Search











Latest Posters
Valiyavan (2019 - Valiyavan South Hindi Dubbed)  - 720p - HD Rip[x264 - AC3(5.1Ch)] - 1.4 GB  / Hindi Dubbed - Movies
Kaashi in Search of Ganga (2019) Hindi - 720p WEB-DL - x264 - AAC 2.0 - Sun George / Bollywood - WebHD
Bari Tar Bangla 2013 Bengali Movie DVDRip x264 aac / Bangla - Movies
Seetharama Kalyana (2019 - Seetharama Kalyana South  Hindi Dubbed) - 720p - HDTV Rip[x264 - AAC3(5.1Ch)] - 1.4 GB / Hindi Dubbed - Movies
Mukherjee Dar Bou (2019) Bengali Movie - 720p -  HDTV Rip[x264 - AC3(5.1Ch)] - 1.4 GB / Bangla - Movies
Kidnap 2019 Bengali Movie Ft Dev  720p HDRip 700MB x264 / Bangla - Movies

Torrent Details For " Ghatak Raat (2019 - Aa Karaala Ratri South Hindi Dubbed) - 720p - DTH Rip[x264 - AC3(5...."

Ghatak Raat (2019 - Aa Karaala Ratri South Hindi Dubbed) - 720p - DTH Rip[x264 - AC3(5....

Download this torrent -- Magnet Download

Health:
Seeds: 1
Leechers: 0
Speed: No Activity
Completed: 3 [Who's Completed] [Request a RE-Seed]
Last Checked: 23-07-2019 16:06:11


Details
Name: Ghatak Raat (2019 - Aa Karaala Ratri South Hindi Dubbed) - 720p - DTH Rip[x264 - AC3(5....
Description:
       Ghatak Raat (2019 - Aa Karaala Ratri South Hindi
Dubbed) - 720p - CensoredH Rip[x264 - AC3(5.1Ch)] - 1.4 GB  
 







General
Format                                   : Matroska
Format version                           : Version 4
File size                                : 1.40 GiB
Duration                                 : 1 h 56 min

Video
ID                                       : 1
Format                                   : AVC
Format/Info                              : Advanced Video Codec
Format profile                           : [email protected]
Format settings                          : CABAC / 4 Ref Frames
Format settings, CABAC                   : Yes
Format settings, Reference frames        : 4 frames
Codec ID                                 : V_MPEG4/ISO/AVC
Duration                                 : 1 h 56 min
Bit rate                                 : 1 536 kb/s
Width                                    : 1 280 pixels
Height                                   : 544 pixels
Display aspect ratio                     : 2.35:1
Frame rate mode                          : Constant
Frame rate                               : 25.000 FPS
Color space                              : YUV
Chroma subsampling                       : 4:2:0
Bit depth                                : 8 bits
Scan type                                : Progressive
Bits/(Pixel*Frame)                       : 0.088
Stream size                              : 1.25 GiB (89%)

Audio
ID                                       : 2
Format                                   : AC-3
Format/Info                              : Audio Coding 3
Commercial name                          : Dolby Digital
Codec ID                                 : A_AC3
Duration                                 : 1 h 56 min
Bit rate mode                            : Constant
Bit rate                                 : 192 kb/s
Channel(s)                               : 6 channels
Channel layout                           : L R C LFE Ls Rs
Sampling rate                            : 48.0 kHz
Stream size                              : 159 MiB (11%)


  Thumbnail    



Category:Hindi Dubbed > Movies
Lang:Hindi
Total Size:1.40 GB
Info Hash:e096e5f9f75561ab05163ccf9042d0a122c54dfa
Added By:Optimus
Date Added:10-07-2019 06:25:18
Views:45
Hits:11


Ratings:Not Yet Rated (Log in to rate it)

  


This Torrent also has backup trackers
URLSeedersLeechersCompleted
http://tracker.torrentyorg.pl:80/announce000
https://tracker.fastdownload.xyz:443/announce000
http://vps02.net.orel.ru:80/announce000


File List: 

Peers List:
Port Uploaded Downloaded Ratio left Ready% Seed Conn. Client Nick
331550.00 B0.00 B---0.00 B100.00%yesnouTorrent/2210(25154)Unknown User



Comments

NOCOMMENTS

Page Generated In 0.000000 secs.