[Login] or [Signup]

,
Search











Latest Posters
Kadaram Kondan.2019.1080p.AMZN.WeB.DL.H264.DDP.5.1.DusIcTv / Tamil - Movies
Ninu Veedani Needanu Nene.2019.1080p.AMZN.WeB.DL.H264.DDP.5.1.DusIcTv / Telugu - Movies
Nabab 2019 Bangla Movie Shakib Khan HDRip 1GB / Bangla - Movies
Devon Ke Dev... Mahadev (2011) Hindi - {Episodes 224 To 344 } - 720p WEB-DL - x264 - AAC 2.0 - Sun George / Bollywood - WebHD
The Avengers Earths Mightiest Heroes [2010-12] Complete S01 1080p Bluray x 264 Duel Aud [Hin DD 2.0 + Eng DDP 5.1] - Esub Reperza-Cinemaghar  / Hollywood - Anime, Cartoon
The Avengers Earths Mightiest Heroes [2010-12] Complete S01 720p Bluray x 264 Duel Aud [Hin DD 2.0 + Eng DDP 5.1] - Esub Reperza-Cinemaghar  / Hollywood - Anime, Cartoon

Torrent Details For "Seetharama Kalyana (2019 - Seetharama Kalyana South Hindi Dubbed) - 720p - HDTV Rip[x264 ..."

Seetharama Kalyana (2019 - Seetharama Kalyana South Hindi Dubbed) - 720p - HDTV Rip[x264 ...

Download this torrent -- Magnet Download

Health:
Seeds: 64
Leechers: 0
Completed: 1,640 
Last Checked: 16-08-2019 12:25:58
External Torrent
UPDATE_STATS


Details
Name:Seetharama Kalyana (2019 - Seetharama Kalyana South Hindi Dubbed) - 720p - HDTV Rip[x264 ...
Description:
      Seetharama Kalyana (2019 - Seetharama Kalyana South
Hindi Dubbed) - 720p - HCensoredV Rip[x264 - AAC3(5.1Ch)] - 1.4 GB  
 




General
Format                                   : Matroska
Format version                           : Version 4
File size                                : 1.40 GiB
Duration                                 : 2 h 34 min

Video
ID                                       : 1
Format                                   : AVC
Format/Info                              : Advanced Video Codec
Format profile                           : [email protected]
Format settings                          : CABAC / 4 Ref Frames
Format settings, CABAC                   : Yes
Format settings, Reference frames        : 4 frames
Codec ID                                 : V_MPEG4/ISO/AVC
Duration                                 : 2 h 34 min
Bit rate                                 : 1 172 kb/s
Width                                    : 1 280 pixels
Height                                   : 544 pixels
Display aspect ratio                     : 2.35:1
Frame rate mode                          : Constant
Frame rate                               : 25.000 FPS
Color space                              : YUV
Chroma subsampling                       : 4:2:0
Bit depth                                : 8 bits
Scan type                                : Progressive
Bits/(Pixel*Frame)                       : 0.067
Stream size                              : 1.26 GiB (90%)

Audio
ID                                       : 2
Format                                   : AAC LC SBR
Commercial name                          : HE-AAC
Format settings                          : Explicit
Codec ID                                 : A_AAC-2
Duration                                 : 2 h 34 min
Bit rate                                 : 128 kb/s
Channel(s)                               : 6 channels
Channel layout                           : C L R Ls Rs LFE
Sampling rate                            : 48.0 kHz
Stream size                              : 141 MiB (10%)

























Category:Hindi Dubbed > Movies
Lang:Hindi
Total Size:1.40 GB
Info Hash:3dfc0b142908ff88f9a7658cd5e6850646ad3a14
Added By:Optimus
Date Added:23-07-2019 04:57:51
Views:75
Hits:13


Ratings:Not Yet Rated (Log in to rate it)

  


Tracker:
udp://tracker.leechers-paradise.org:6969/announce


File List: 


Comments

NOCOMMENTS

Page Generated In 0.000000 secs.