[Login] or [Signup]

,
Search











Latest Posters
Kadaram Kondan.2019.1080p.AMZN.WeB.DL.H264.DDP.5.1.DusIcTv / Tamil - Movies
Ninu Veedani Needanu Nene.2019.1080p.AMZN.WeB.DL.H264.DDP.5.1.DusIcTv / Telugu - Movies
Nabab 2019 Bangla Movie Shakib Khan HDRip 1GB / Bangla - Movies
Devon Ke Dev... Mahadev (2011) Hindi - {Episodes 224 To 344 } - 720p WEB-DL - x264 - AAC 2.0 - Sun George / Bollywood - WebHD
The Avengers Earths Mightiest Heroes [2010-12] Complete S01 1080p Bluray x 264 Duel Aud [Hin DD 2.0 + Eng DDP 5.1] - Esub Reperza-Cinemaghar  / Hollywood - Anime, Cartoon
The Avengers Earths Mightiest Heroes [2010-12] Complete S01 720p Bluray x 264 Duel Aud [Hin DD 2.0 + Eng DDP 5.1] - Esub Reperza-Cinemaghar  / Hollywood - Anime, Cartoon

Torrent Details For "Valiyavan (2019 - Valiyavan South Hindi Dubbed) - 720p - HD Rip[x264 - AC3(5.1Ch)] - 1.4 ..."

Valiyavan (2019 - Valiyavan South Hindi Dubbed) - 720p - HD Rip[x264 - AC3(5.1Ch)] - 1.4 ...

Download this torrent -- Magnet Download

Health:
Seeds: 10
Leechers: 0
Completed: 543 
Last Checked: 20-08-2019 01:35:45
External Torrent
UPDATE_STATS


Details
Name:Valiyavan (2019 - Valiyavan South Hindi Dubbed) - 720p - HD Rip[x264 - AC3(5.1Ch)] - 1.4 ...
Description:
       Valiyavan (2019 - Valiyavan South Hindi Dubbed)
- 720p - HD Rip[x264 - AC3(5.1Ch)] - 1.4 GB  
 







General
Format                                   : Matroska
Format version                           : Version 4
File size                                : 1.41 GiB
Duration                                 : 2 h 21 min

Video
ID                                       : 1
Format                                   : AVC
Format/Info                              : Advanced Video Codec
Format profile                           : [email protected]
Format settings                          : CABAC / 4 Ref Frames
Format settings, CABAC                   : Yes
Format settings, Reference frames        : 4 frames
Codec ID                                 : V_MPEG4/ISO/AVC
Duration                                 : 2 h 21 min
Bit rate                                 : 1 227 kb/s
Width                                    : 1 280 pixels
Height                                   : 544 pixels
Display aspect ratio                     : 2.35:1
Frame rate mode                          : Constant
Frame rate                               : 25.000 FPS
Color space                              : YUV
Chroma subsampling                       : 4:2:0
Bit depth                                : 8 bits
Scan type                                : Progressive
Bits/(Pixel*Frame)                       : 0.070
Stream size                              : 1.21 GiB (86%)

Audio
ID                                       : 2
Format                                   : AC-3
Format/Info                              : Audio Coding 3
Commercial name                          : Dolby Digital
Codec ID                                 : A_AC3
Duration                                 : 2 h 21 min
Bit rate mode                            : Constant
Bit rate                                 : 192 kb/s
Channel(s)                               : 6 channels
Channel layout                           : L R C LFE Ls Rs
Sampling rate                            : 48.0 kHz
Stream size                              : 194 MiB (14%)















Category:Hindi Dubbed > Movies
Lang:Hindi
Total Size:1.41 GB
Info Hash:b2c3bd234be15f6aca768b475c23536ba6ebb7f3
Added By:Optimus
Date Added:23-07-2019 11:24:02
Views:94
Hits:10


Ratings:Not Yet Rated (Log in to rate it)

  


Tracker:
udp://tracker.leechers-paradise.org:6969/announce


File List: 


Comments

NOCOMMENTS

Page Generated In 0.000000 secs.