[Login] or [Signup]

,
Search











Latest Posters
Kadaram Kondan.2019.1080p.AMZN.WeB.DL.H264.DDP.5.1.DusIcTv / Tamil - Movies
Ninu Veedani Needanu Nene.2019.1080p.AMZN.WeB.DL.H264.DDP.5.1.DusIcTv / Telugu - Movies
Nabab 2019 Bangla Movie Shakib Khan HDRip 1GB / Bangla - Movies
Devon Ke Dev... Mahadev (2011) Hindi - {Episodes 224 To 344 } - 720p WEB-DL - x264 - AAC 2.0 - Sun George / Bollywood - WebHD
The Avengers Earths Mightiest Heroes [2010-12] Complete S01 1080p Bluray x 264 Duel Aud [Hin DD 2.0 + Eng DDP 5.1] - Esub Reperza-Cinemaghar  / Hollywood - Anime, Cartoon
The Avengers Earths Mightiest Heroes [2010-12] Complete S01 720p Bluray x 264 Duel Aud [Hin DD 2.0 + Eng DDP 5.1] - Esub Reperza-Cinemaghar  / Hollywood - Anime, Cartoon

Torrent Details For "Chappie 2015 1080p BluRay x264 Dual Audio [Hindi DD 2.0 - English DD 5.1] ESub [MW]"

Chappie 2015 1080p BluRay x264 Dual Audio [Hindi DD 2.0 - English DD 5.1] ESub [MW]

Download this torrent -- Magnet Download

Health:
Seeds: 13
Leechers: 9
Completed:
Last Checked: 11-08-2019 05:08:02
External Torrent
UPDATE_STATS


Details
Name:Chappie 2015 1080p BluRay x264 Dual Audio [Hindi DD 2.0 - English DD 5.1] ESub [MW]
Description:
[center]



General
Format                                   : Matroska
Format version                           : Version 4
File size                                : 2.62 GiB
Duration                                 : 2 h 0 min
Overall bit rate                         : 3 120 kb/s

Video
ID                                       : 1
Format                                   : AVC
Format/Info                              : Advanced Video Codec
Format profile                           : [email protected]
Format settings                          : CABAC / 4 Ref Frames
Format settings, CABAC                   : Yes
Format settings, Reference frames        : 4 frames
Codec ID                                 : V_MPEG4/ISO/AVC
Duration                                 : 2 h 0 min
Bit rate                                 : 2 500 kb/s
Width                                    : 1 920 pixels
Height                                   : 800 pixels
Display aspect ratio                     : 2.40:1
Frame rate mode                          : Constant
Frame rate                               : 23.976 (23976/1000) FPS
Color space                              : YUV
Chroma subsampling                       : 4:2:0
Bit depth                                : 8 bits
Scan type                                : Progressive
Bits/(Pixel*Frame)                       : 0.068
Stream size                              : 2.10 GiB (80%)
Writing library                          : x264 core 152 r2851M ba24899

Audio #1
ID                                       : 2
Format                                   : AC-3
Format/Info                              : Audio Coding 3
Commercial name                          : Dolby Digital
Codec ID                                 : A_AC3
Duration                                 : 2 h 0 min
Bit rate mode                            : Constant
Bit rate                                 : 384 kb/s
Channel(s)                               : 2 channels
Channel layout                           : L R
Sampling rate                            : 48.0 kHz
Frame rate                               : 31.250 FPS (1536 SPF)
Bit depth                                : 16 bits
Compression mode                         : Lossy
Stream size                              : 330 MiB (12%)
Language                                 : Hindi
Service kind                             : Complete Main
Default                                  : Yes
Forced                                   : Yes

Audio #2
ID                                       : 3
Format                                   : AC-3
Format/Info                              : Audio Coding 3
Commercial name                          : Dolby Digital
Codec ID                                 : A_AC3
Duration                                 : 2 h 0 min
Bit rate mode                            : Constant
Bit rate                                 : 224 kb/s
Channel(s)                               : 6 channels
Channel layout                           : L R C LFE Ls Rs
Sampling rate                            : 48.0 kHz
Frame rate                               : 31.250 FPS (1536 SPF)
Bit depth                                : 16 bits
Compression mode                         : Lossy
Stream size                              : 193 MiB (7%)
Language                                 : English
Service kind                             : Complete Main
Default                                  : No
Forced                                   : No

Text #1
ID                                       : 4
Format                                   : VobSub
Muxing mode                              : zlib
Codec ID                                 : S_VOBSUB
Codec ID/Info                            : Picture based subtitle format used on DVDs
Duration                                 : 1 h 52 min
Bit rate                                 : 10.0 kb/s
Count of elements                        : 1602
Stream size                              : 8.06 MiB (0%)
Language                                 : English
Default                                  : Yes
Forced                                   : No


Click To View Image

https://pichub.site/image/h4Rps
https://pichub.site/image/h4SeB
https://pichub.site/image/h4EkY
https://pichub.site/image/h4dv6
https://pichub.site/image/h47Ht
https://pichub.site/image/h4cD4
[/center]
Category:Hindi Dubbed > Movies
Lang:Hindi
Total Size:2.62 GB
Info Hash:dc833c20e03fe64adfff73ccb81e67a49198dec8
Added By:moviefreak
Date Added:11-08-2019 05:07:25
Views:26
Hits:2


Ratings:Not Yet Rated (Log in to rate it)


Tracker:
udp://tracker.openbittorrent.com:80/announce


File List: 


Comments

NOCOMMENTS

Page Generated In 0.000000 secs.