[Login] or [Signup]

,
Search











Latest Posters
Kadaram Kondan.2019.1080p.AMZN.WeB.DL.H264.DDP.5.1.DusIcTv / Tamil - Movies
Ninu Veedani Needanu Nene.2019.1080p.AMZN.WeB.DL.H264.DDP.5.1.DusIcTv / Telugu - Movies
Nabab 2019 Bangla Movie Shakib Khan HDRip 1GB / Bangla - Movies
Devon Ke Dev... Mahadev (2011) Hindi - {Episodes 224 To 344 } - 720p WEB-DL - x264 - AAC 2.0 - Sun George / Bollywood - WebHD
The Avengers Earths Mightiest Heroes [2010-12] Complete S01 1080p Bluray x 264 Duel Aud [Hin DD 2.0 + Eng DDP 5.1] - Esub Reperza-Cinemaghar  / Hollywood - Anime, Cartoon
The Avengers Earths Mightiest Heroes [2010-12] Complete S01 720p Bluray x 264 Duel Aud [Hin DD 2.0 + Eng DDP 5.1] - Esub Reperza-Cinemaghar  / Hollywood - Anime, Cartoon

Torrent Details For "Project Ithaca 2019 1080p BluRay x264 DTS [MW]"

Project Ithaca 2019 1080p BluRay x264 DTS [MW]

Download this torrent -- Magnet Download

Health:
Seeds: 15
Leechers: 7
Completed:
Last Checked: 11-08-2019 06:43:48
External Torrent
UPDATE_STATS


Details
Name:Project Ithaca 2019 1080p BluRay x264 DTS [MW]
Description:
[center]



General
Format                                   : Matroska
Format version                           : Version 4
File size                                : 2.32 GiB
Duration                                 : 1 h 25 min
Overall bit rate                         : 3 896 kb/s

Video
ID                                       : 1
Format                                   : AVC
Format/Info                              : Advanced Video Codec
Format profile                           : [email protected]
Format settings                          : CABAC / 4 Ref Frames
Format settings, CABAC                   : Yes
Format settings, Reference frames        : 4 frames
Codec ID                                 : V_MPEG4/ISO/AVC
Duration                                 : 1 h 25 min
Bit rate                                 : 3 200 kb/s
Width                                    : 1 920 pixels
Height                                   : 804 pixels
Display aspect ratio                     : 2.40:1
Frame rate mode                          : Constant
Frame rate                               : 23.976 (24000/1001) FPS
Color space                              : YUV
Chroma subsampling                       : 4:2:0
Bit depth                                : 8 bits
Scan type                                : Progressive
Bits/(Pixel*Frame)                       : 0.086
Stream size                              : 1.85 GiB (80%)
Writing library                          : x264 core 157 r2935 545de2f

Audio
ID                                       : 2
Format                                   : CensoredS
Format/Info                              : Digital Theater Systems
Codec ID                                 : A_CensoredS
Duration                                 : 1 h 25 min
Bit rate mode                            : Constant
Bit rate                                 : 768 kb/s
Channel(s)                               : 6 channels
Channel layout                           : C L R Ls Rs LFE
Sampling rate                            : 48.0 kHz
Frame rate                               : 93.750 FPS (512 SPF)
Bit depth                                : 16 bits
Compression mode                         : Lossy
Stream size                              : 469 MiB (20%)
Language                                 : English
Default                                  : Yes
Forced                                   : No

Text #1
ID                                       : 3
Format                                   : UTF-8
Codec ID                                 : S_TEXT/UTF8
Codec ID/Info                            : UTF-8 Plain Text
Duration                                 : 1 h 23 min
Bit rate                                 : 53 b/s
Count of elements                        : 1026
Stream size                              : 32.9 KiB (0%)
Language                                 : English
Default                                  : No
Forced                                   : No


Click To View Image

https://pichub.site/image/hfO3I
https://pichub.site/image/hfSaX
https://pichub.site/image/hfD88
https://pichub.site/image/hfdq5
https://pichub.site/image/hfElJ
https://pichub.site/image/hfVyh
[/center]
Category:Hollywood > BluRay
Lang:English  English
Total Size:2.32 GB
Info Hash:8428cd02bb07305ea223d98abdff4b17c92afe85
Added By:moviefreak
Date Added:11-08-2019 06:42:50
Views:30
Hits:2


Ratings:Not Yet Rated (Log in to rate it)


Tracker:
udp://tracker.openbittorrent.com:80/announce


File List: 


Comments

NOCOMMENTS

Page Generated In 0.000000 secs.