[Login] or [Signup]

,
Search











Latest Posters
Kadaram Kondan.2019.1080p.AMZN.WeB.DL.H264.DDP.5.1.DusIcTv / Tamil - Movies
Ninu Veedani Needanu Nene.2019.1080p.AMZN.WeB.DL.H264.DDP.5.1.DusIcTv / Telugu - Movies
Nabab 2019 Bangla Movie Shakib Khan HDRip 1GB / Bangla - Movies
Devon Ke Dev... Mahadev (2011) Hindi - {Episodes 224 To 344 } - 720p WEB-DL - x264 - AAC 2.0 - Sun George / Bollywood - WebHD
The Avengers Earths Mightiest Heroes [2010-12] Complete S01 1080p Bluray x 264 Duel Aud [Hin DD 2.0 + Eng DDP 5.1] - Esub Reperza-Cinemaghar  / Hollywood - Anime, Cartoon
The Avengers Earths Mightiest Heroes [2010-12] Complete S01 720p Bluray x 264 Duel Aud [Hin DD 2.0 + Eng DDP 5.1] - Esub Reperza-Cinemaghar  / Hollywood - Anime, Cartoon

Torrent Details For "Red Joan 2018 1080p BluRay x264 DTS [MW]"

Red Joan 2018 1080p BluRay x264 DTS [MW]

Download this torrent -- Magnet Download

Health:
Seeds: 17
Leechers: 22
Completed:
Last Checked: 13-08-2019 10:08:29
External Torrent
UPDATE_STATS


Details
Name:Red Joan 2018 1080p BluRay x264 DTS [MW]
Description:
[center]



General
Format                                   : Matroska
Format version                           : Version 4
File size                                : 2.62 GiB
Duration                                 : 1 h 40 min
Overall bit rate                         : 3 722 kb/s

Video
ID                                       : 1
Format                                   : AVC
Format/Info                              : Advanced Video Codec
Format profile                           : [email protected]
Format settings                          : CABAC / 4 Ref Frames
Format settings, CABAC                   : Yes
Format settings, Reference frames        : 4 frames
Codec ID                                 : V_MPEG4/ISO/AVC
Duration                                 : 1 h 40 min
Bit rate                                 : 3 000 kb/s
Width                                    : 1 920 pixels
Height                                   : 804 pixels
Display aspect ratio                     : 2.40:1
Frame rate mode                          : Constant
Frame rate                               : 24.000 FPS
Color space                              : YUV
Chroma subsampling                       : 4:2:0
Bit depth                                : 8 bits
Scan type                                : Progressive
Bits/(Pixel*Frame)                       : 0.081
Stream size                              : 2.08 GiB (79%)
Writing library                          : x264 core 157 r2935 545de2f

Audio
ID                                       : 2
Format                                   : CensoredS
Format/Info                              : Digital Theater Systems
Codec ID                                 : A_CensoredS
Duration                                 : 1 h 40 min
Bit rate mode                            : Constant
Bit rate                                 : 768 kb/s
Channel(s)                               : 6 channels
Channel layout                           : C L R Ls Rs LFE
Sampling rate                            : 48.0 kHz
Frame rate                               : 93.750 FPS (512 SPF)
Bit depth                                : 16 bits
Compression mode                         : Lossy
Stream size                              : 554 MiB (21%)
Language                                 : English
Default                                  : Yes
Forced                                   : No


Click To View Image

https://pichub.site/image/hJQib
https://pichub.site/image/hJWp0
https://pichub.site/image/hJbeV
https://pichub.site/image/hJqvN
https://pichub.site/image/hJjcT
https://pichub.site/image/hM4HD
[/center]
Category:Hollywood > BluRay
Lang:English  English
Total Size:2.62 GB
Info Hash:add1bb84e2eebb4b027b405050ef485d48c727b7
Added By:moviefreak
Date Added:13-08-2019 10:08:03
Views:18
Hits:2


Ratings:Not Yet Rated (Log in to rate it)


Tracker:
udp://tracker.openbittorrent.com:80/announce


File List: 


Comments

NOCOMMENTS

Page Generated In 0.000000 secs.