[Login] or [Signup]

,
Search











Latest Posters
Kadaram Kondan.2019.1080p.AMZN.WeB.DL.H264.DDP.5.1.DusIcTv / Tamil - Movies
Ninu Veedani Needanu Nene.2019.1080p.AMZN.WeB.DL.H264.DDP.5.1.DusIcTv / Telugu - Movies
Nabab 2019 Bangla Movie Shakib Khan HDRip 1GB / Bangla - Movies
Devon Ke Dev... Mahadev (2011) Hindi - {Episodes 224 To 344 } - 720p WEB-DL - x264 - AAC 2.0 - Sun George / Bollywood - WebHD
The Avengers Earths Mightiest Heroes [2010-12] Complete S01 1080p Bluray x 264 Duel Aud [Hin DD 2.0 + Eng DDP 5.1] - Esub Reperza-Cinemaghar  / Hollywood - Anime, Cartoon
The Avengers Earths Mightiest Heroes [2010-12] Complete S01 720p Bluray x 264 Duel Aud [Hin DD 2.0 + Eng DDP 5.1] - Esub Reperza-Cinemaghar  / Hollywood - Anime, Cartoon

Torrent Details For "Godzilla King of the Monsters 2019 720p WEB-DL x264 ESub [MW]"

Godzilla King of the Monsters 2019 720p WEB-DL x264 ESub [MW]

Download this torrent -- Magnet Download

Health:
Seeds: 21
Leechers: 78
Completed:
Last Checked: 13-08-2019 14:21:54
External Torrent
UPDATE_STATS


Details
Name:Godzilla King of the Monsters 2019 720p WEB-DL x264 ESub [MW]
Description:
[center]



General
Format                                   : Matroska
Format version                           : Version 4
File size                                : 1.21 GiB
Duration                                 : 2 h 11 min
Overall bit rate                         : 1 316 kb/s

Video
ID                                       : 1
Format                                   : AVC
Format/Info                              : Advanced Video Codec
Format profile                           : [email protected]
Format settings                          : CABAC / 4 Ref Frames
Format settings, CABAC                   : Yes
Format settings, Reference frames        : 4 frames
Codec ID                                 : V_MPEG4/ISO/AVC
Duration                                 : 2 h 11 min
Bit rate                                 : 1 200 kb/s
Width                                    : 1 280 pixels
Height                                   : 532 pixels
Display aspect ratio                     : 2.40:1
Frame rate mode                          : Constant
Frame rate                               : 23.976 (24000/1001) FPS
Color space                              : YUV
Chroma subsampling                       : 4:2:0
Bit depth                                : 8 bits
Scan type                                : Progressive
Bits/(Pixel*Frame)                       : 0.073
Stream size                              : 1.09 GiB (90%)
Writing library                          : x264 core 157 r2935 545de2f

Audio
ID                                       : 2
Format                                   : AAC LC
Codec ID                                 : A_AAC-2
Duration                                 : 2 h 11 min
Bit rate                                 : 128 kb/s
Channel(s)                               : 2 channels
Channel layout                           : L R
Sampling rate                            : 48.0 kHz
Frame rate                               : 46.875 FPS (1024 SPF)
Compression mode                         : Lossy
Stream size                              : 121 MiB (10%)
Language                                 : English
Default                                  : Yes
Forced                                   : No

Text
ID                                       : 3
Format                                   : UTF-8
Codec ID                                 : S_TEXT/UTF8
Codec ID/Info                            : UTF-8 Plain Text
Duration                                 : 2 h 11 min
Bit rate                                 : 53 b/s
Count of elements                        : 1857
Stream size                              : 51.7 KiB (0%)
Language                                 : English
Default                                  : Yes
Forced                                   : No


Click To View Image

https://pichub.site/image/hMsqJ
https://pichub.site/image/hMn58
https://pichub.site/image/hMZw5
https://pichub.site/image/hM10h
https://pichub.site/image/hM9Tj
https://pichub.site/image/hMFuk
[/center]
Category:Hollywood > WEB
Lang:English  English
Total Size:1.21 GB
Info Hash:24a9841577877eb2cef8c105d6de3128a9029dec
Added By:moviefreak
Date Added:13-08-2019 14:19:50
Views:22
Hits:2


Ratings:Not Yet Rated (Log in to rate it)


Tracker:
udp://tracker.openbittorrent.com:80/announce


File List: 


Comments

NOCOMMENTS

Page Generated In 0.000000 secs.