[Login] or [Signup]

,
Search











Latest Posters
Pow pandi 2019 Hindi Dubbed Movie Dhanush HDRip 800MB / Hindi Dubbed - Movies
Mirch Masala 2019 Hindi Dubbed Movie HDRip 800MB / Hindi Dubbed - Movies
Kabar Ka Keher 2019 Hindi Dubbed Movie HDRip 800MB / Hindi Dubbed - Movies
Gabbar Sher 2019 Hindi Dubbed Movie HDRip 800MB / Hindi Dubbed - Movies
Apman Ki Aag 2019 Hindi Dubbed Movie HDRip 800MB / Hindi Dubbed - Movies
Aag Ka Gola 2019 Hindi Dubbed Movie HDRip 800MB / Hindi Dubbed - Movies

Torrent Details For "The Avengers Earths Mightiest Heroes [2010-12] Complete S01 1080p Bluray x 264 Duel Aud [H..."

The Avengers Earths Mightiest Heroes [2010-12] Complete S01 1080p Bluray x 264 Duel Aud [H...

Download this torrent -- Magnet Download

Health:
Seeds: 0
Leechers: 0
Speed: No Activity
Completed:
Last Checked: 24-08-2019 05:30:10


Details
Name:The Avengers Earths Mightiest Heroes [2010-12] Complete S01 1080p Bluray x 264 Duel Aud [H...
Description:
[center]The Avengers Earths Mightiest Heroes [2010-12] Complete S01 1080p Bluray x 264 Duel Aud [Hin DD 2.0 + Eng DDP 5.1] - Esub Reperza-Cinemaghar
 
Xclusive  - 1st On Net With Duel Audio





Releaser Notes:
Hindi audio is extracted by Bruce Wayne Thanks.
Million thanks to Max Payne and Ansilion for helping with untouched rips.
All the episodes are perfectly synced by me which took 16 days to complete.
Wherever you use this audio or video give proper credit to syncer and uploader.

- Repearza [Team Cinemaghar]


Format                                   : Matroska
Format version                           : Version 4
File size                                : 1.12 GiB
Duration                                 : 22 min 8 s
Overall bit rate                         : 7 233 kb/s
Movie name                               : The.Avengers.Earths.Mightiest.Heroes.S01E01.Iron.Man.Is.Born.1080p.BluRay.x264.AC3.ReaperZa
Encoded date                             : UTC 2019-08-21 19:18:16
Writing application                      : mkvmerge v8.3.0 ('Over the Horizon') 64bit
Writing library                          : libebml v1.3.1 + libmatroska v1.4.2

Video
ID                                       : 1
Format                                   : AVC
Format/Info                              : Advanced Video Codec
Format profile                           : [email protected]
Format settings                          : CABAC / 4 Ref Frames
Format settings, CABAC                   : Yes
Format settings, Reference frames        : 4 frames
Codec ID                                 : V_MPEG4/ISO/AVC
Duration                                 : 22 min 8 s
Bit rate                                 : 6 365 kb/s
Width                                    : 1 920 pixels
Height                                   : 1 072 pixels
Display aspect ratio                     : 16:9
Frame rate mode                          : Constant
Frame rate                               : 25.000 FPS
Color space                              : YUV
Chroma subsampling                       : 4:2:0
Bit depth                                : 8 bits
Scan type                                : Progressive
Bits/(Pixel*Frame)                       : 0.124
Stream size                              : 986 MiB (86%)
Title                                    : ReaperZa
Writing library                          : x264 core 120 r2120 0c7dab9
Encoding settings                        : cabac=1 / ref=4 / deblock=1:0:0 / analyse=0x3:0x133 / me=umh / subme=8 / psy=1 / psy_rd=1.00:0.00 / mixed_ref=1 / me_range=16 / chroma_me=1 / trellis=1 / 8x8dct=1 / cqm=0 / deadzone=21,11 / fast_pskip=0 / chroma_qp_offset=-2 / threads=12 / sliced_threads=0 / nr=0 / decimate=1 / interlaced=0 / bluray_compat=0 / constrained_intra=0 / bframes=3 / b_pyramid=2 / b_adapt=1 / b_bias=0 / direct=1 / weightb=1 / open_gop=0 / weightp=2 / keyint=250 / keyint_min=25 / scenecut=40 / intra_refresh=0 / rc_lookahead=40 / rc=2pass / mbtree=1 / bitrate=6365 / ratetol=1.0 / qcomp=0.60 / qpmin=0 / qpmax=69 / qpstep=4 / cplxblur=20.0 / qblur=0.5 / ip_ratio=1.40 / aq=1:1.00
Language                                 : English
Default                                  : Yes
Forced                                   : No

Audio #1
ID                                       : 2
Format                                   : AC-3
Format/Info                              : Audio Coding 3
Commercial name                          : Dolby Digital
Codec ID                                 : A_AC3
Duration                                 : 22 min 8 s
Bit rate mode                            : Constant
Bit rate                                 : 224 kb/s
Channel(s)                               : 2 channels
Channel layout                           : L R
Sampling rate                            : 48.0 kHz
Frame rate                               : 31.250 FPS (1536 SPF)
Bit depth                                : 16 bits
Compression mode                         : Lossy
Stream size                              : 35.5 MiB (3%)
Title                                    : ReaperZa
Language                                 : Hindi
Service kind                             : Complete Main
Default                                  : Yes
Forced                                   : Yes

Audio #2
ID                                       : 3
Format                                   : AC-3
Format/Info                              : Audio Coding 3
Commercial name                          : Dolby Digital
Codec ID                                 : A_AC3
Duration                                 : 22 min 8 s
Bit rate mode                            : Constant
Bit rate                                 : 640 kb/s
Channel(s)                               : 6 channels
Channel layout                           : L R C LFE Ls Rs
Sampling rate                            : 48.0 kHz
Frame rate                               : 31.250 FPS (1536 SPF)
Bit depth                                : 16 bits
Compression mode                         : Lossy
Stream size                              : 101 MiB (9%)
Title                                    : ReaperZa
Language                                 : English
Service kind                             : Complete Main
Default                                  : No
Forced                                   : No

Text
ID                                       : 4
Format                                   : UTF-8
Codec ID                                 : S_TEXT/UTF8
Codec ID/Info                            : UTF-8 Plain Text
Title                                    : ReaperZa
Language                                 : English
Default                                  : Yes
Forced                                   : Yes

Menu
00:00:00.000                             : en:Chapter 1
00:00:59.400                             : en:Chapter 2
00:10:54.160                             : en:Chapter 3
00:22:05.440                             : en:Chapter 4
[/center]
[center]





[/center]
Category:Hollywood > Anime, Cartoon
Lang:Hindi
Total Size:29.07 GB
Info Hash:2f3b456f2210ee9a863366e2ff797db4f9aa5bd5
Added By:Cinemaghar
Date Added:22-08-2019 07:41:10
Views:42
Hits:5


Ratings:Not Yet Rated (Log in to rate it)

  


This Torrent also has backup trackers
URLSeedersLeechersCompleted
http://tracker.torrentyorg.pl:80/announce000
https://tracker.fastdownload.xyz:443/announce000
http://vps02.net.orel.ru:80/announce000


File List: 

Peers List:
No Active Peers


Comments

NOCOMMENTS

Page Generated In 0.000000 secs.