[Login] or [Signup]

,
Search











Latest Posters
Okka Ammayi Thappa (2016) HDRip x264 HiNdi Dubb AAC[PherariMon] / South-Dubbed - Movies
VA - New Music Releases Week 42 of 2019 (Mp3 320kbps Songs) [PMEDIA] / Hollywood - Music
Jaathre (2015) HDRip x264 HiNdi Dubb AAC[PherariMon] / Softwares - Mac and Other OS
Bawali Unlimited (2012) Bengali Movie - HDRip[x264 - AAC(2.1Ch) / Bangla - Movies
Thadam 2019 Hindi Dubbed Movie HDRip 700MB / Hindi Dubbed - Movies
Tyson - Ek Police Officer 2019 Hindi Dubbed Movie HDRip 700MB / Hindi Dubbed - Movies

Torrent Details For "Yaman (2017) 1080p UNCUT WEB.DL AVC E-Subs [Dual Audio] [Hindi DD2.0 + Tamil DD2.0] Exclus..."

Yaman (2017) 1080p UNCUT WEB.DL AVC E-Subs [Dual Audio] [Hindi DD2.0 + Tamil DD2.0] Exclus...

Download this torrent -- Magnet Download

Health:
Seeds: 0
Leechers: 0
Speed: No Activity
Completed: 4 [Who's Completed] [Request a RE-Seed]
Last Checked: 26-08-2019 03:11:22


Details
Name:Yaman (2017) 1080p UNCUT WEB.DL AVC E-Subs [Dual Audio] [Hindi DD2.0 + Tamil DD2.0] Exclus...
Description:
[center]Yaman (2017) 1080p UNCUT WEB.DL AVC ESubs [Dual Audio] [Hindi DD2.0 + Tamil DD2.0] Exclusive BabaHD

Exclusive Sync By www.BABAHD.com



Source's : Video - ytdl  & Hindi Audio ORG - CensoredH @Lottery Thanks


Video
ID : 1
Format : AVC
Format/Info : Advanced Video Codec
Format profile : [email protected]
Format settings : CABAC / 3 Ref Frames
Format settings, CABAC : Yes
Format settings, Reference frames : 3 frames
Codec ID : V_MPEG4/ISO/AVC
Duration : 2 h 32 min
Bit rate : 1 474 kb/s
Width : 1 920 pixels
Height : 1 080 pixels
Display aspect ratio : 16:9
Frame rate mode : Constant
Frame rate : 24.000 FPS
Color space : YUV
Chroma subsampling : 4:2:0
Bit depth : 8 bits
Scan type : Progressive
Bits/(Pixel*Frame) : 0.030
Stream size : 1.56 GiB (82%)
Default : Yes
Forced : No
Color range : Limited
Color primaries : BT.709
Transfer characteristics : BT.709
Matrix coefficients : BT.709


Audio #1
ID : 2
Format : AC-3
Format/Info : Audio Coding 3
Commercial name : Dolby Digital
Codec ID : A_AC3
Duration : 2 h 32 min
Bit rate mode : Constant
Bit rate : 192 kb/s
Channel(s) : 2 channels
Channel layout : L R
Sampling rate : 48.0 kHz
Frame rate : 31.250 FPS (1536 SPF)
Bit depth : 16 bits
Compression mode : Lossy
Stream size : 208 MiB (11%)
Language : Hindi
Service kind : Complete Main
Default : Yes
Forced : Yes


Audio #2
ID : 3
Format : AAC LC
Format/Info : Advanced Audio Codec Low Complexity
Codec ID : A_AAC-2
Duration : 2 h 32 min
Bit rate : 128 kb/s
Channel(s) : 2 channels
Channel layout : L R
Sampling rate : 44.1 kHz
Frame rate : 43.066 FPS (1024 SPF)
Compression mode : Lossy
Stream size : 139 MiB (7%)
Language : Tamil
Default : No
Forced : No


Text
ID : 4
Format : UTF-8
Codec ID : S_TEXT/UTF8
Codec ID/Info : UTF-8 Plain Text
Duration : 2 h 28 min
Bit rate : 59 b/s
Count of elements : 1944
Stream size : 64.9 KiB (0%)
Language : English
Default : Yes
Forced : No









[/center]
Category:South-Dubbed > Movies
Lang:Hindi
Total Size:1.90 GB
Info Hash:94ff8c6daa298450129247ba6dbc570db344ae56
Added By:BabaHD
Date Added:24-08-2019 15:23:43
Views:74
Hits:13


Ratings:Not Yet Rated (Log in to rate it)

  


This Torrent also has backup trackers
URLSeedersLeechersCompleted
http://tracker1.itzmx.com:8080/announce000
http://tracker3.itzmx.com:6961/announce000


File List: 

Peers List:
No Active Peers


Comments

NOCOMMENTS

Page Generated In 0.000000 secs.