[Login] or [Signup]

,
Search











Latest Posters
Kadaram Kondan.2019.1080p.AMZN.WeB.DL.H264.DDP.5.1.DusIcTv / Tamil - Movies
Ninu Veedani Needanu Nene.2019.1080p.AMZN.WeB.DL.H264.DDP.5.1.DusIcTv / Telugu - Movies
Nabab 2019 Bangla Movie Shakib Khan HDRip 1GB / Bangla - Movies
Devon Ke Dev... Mahadev (2011) Hindi - {Episodes 224 To 344 } - 720p WEB-DL - x264 - AAC 2.0 - Sun George / Bollywood - WebHD
The Avengers Earths Mightiest Heroes [2010-12] Complete S01 1080p Bluray x 264 Duel Aud [Hin DD 2.0 + Eng DDP 5.1] - Esub Reperza-Cinemaghar  / Hollywood - Anime, Cartoon
The Avengers Earths Mightiest Heroes [2010-12] Complete S01 720p Bluray x 264 Duel Aud [Hin DD 2.0 + Eng DDP 5.1] - Esub Reperza-Cinemaghar  / Hollywood - Anime, Cartoon

Torrent Details For "Parchayee Ghost Stories [2019] Hindi Zee5 originals Ep - 7 1080p webdl x 264 - [cinemaghar..."

Parchayee Ghost Stories [2019] Hindi Zee5 originals Ep - 7 1080p webdl x 264 - [cinemaghar...

Download this torrent -- Magnet Download

Health:
Seeds: 0
Leechers: 0
Completed:
Last Checked: 15-05-2019 07:00:28
External Torrent
UPDATE_STATS


Details
Name:Parchayee Ghost Stories [2019] Hindi Zee5 originals Ep - 7 1080p webdl x 264 - [cinemaghar...
Description:
[center] Parchayee Ghost Stories  [2019] Zee5 originals Ep - 7 1080p webdl x 264 - [cinemaghar] Xclusive [1st on net]







Xclusive


- By Team Cinemaghar



General
Unique ID                                : 205173407658410582604231682783223223188 (0x9A5AF6017BAC20104B24301884481394)
Complete name                            : H:\Parchayee Ghost Stories  [2019] Zee5 originals Ep - 7 1080p webdl x 264 - [cinemaghar] Xclusive\Parchayee Ghost Stories  [2019] Zee5 originals Ep - 7 1080p webdl x 264 - [cinemaghar] Xclusive.mkv
Format                                   : Matroska
Format version                           : Version 4
File size                                : 637 MiB
Duration                                 : 40 min 13 s
Overall bit rate                         : 2 214 kb/s
Movie name                               : Episode 7 - Topaz [Cinemaghar]
Encoded date                             : UTC 2019-04-12 11:40:27
Writing application                      : mkvmerge v32.0.0 ('Astral Progressions') 64-bit
Writing library                          : libebml v1.3.7 + libmatroska v1.5.0

Video
ID                                       : 1
Format                                   : AVC
Format/Info                              : Advanced Video Codec
Format profile                           : [email protected]
Format settings                          : CABAC / 4 Ref Frames
Format settings, CABAC                   : Yes
Format settings, RefFrames               : 4 frames
Format settings, GOP                     : M=4, N=50
Codec ID                                 : V_MPEG4/ISO/AVC
Duration                                 : 40 min 13 s
Bit rate                                 : 2 200 kb/s
Width                                    : 1 920 pixels
Height                                   : 1 080 pixels
Display aspect ratio                     : 16:9
Frame rate mode                          : Constant
Frame rate                               : 25.000 FPS
Color space                              : YUV
Chroma subsampling                       : 4:2:0
Bit depth                                : 8 bits
Scan type                                : Progressive
Bits/(Pixel*Frame)                       : 0.042
Stream size                              : 609 MiB (96%)
Title                                    : Cinemaghar
Writing library                          : x264 core 152 r2854 e9a5903
Encoding settings                        : cabac=1 / ref=3 / deblock=1:0:0 / analyse=0x3:0x113 / me=hex / subme=7 / psy=1 / psy_rd=1.00:0.00 / mixed_ref=1 / me_range=16 / chroma_me=1 / trellis=1 / 8x8dct=1 / cqm=0 / deadzone=21,11 / fast_pskip=1 / chroma_qp_offset=-2 / threads=34 / lookahead_threads=5 / sliced_threads=0 / nr=0 / decimate=1 / interlaced=0 / bluray_compat=0 / constrained_intra=0 / bframes=3 / b_pyramid=2 / b_adapt=1 / b_bias=0 / direct=1 / weightb=1 / open_gop=0 / weightp=2 / keyint=50 / keyint_min=26 / scenecut=0 / intra_refresh=0 / rc_lookahead=40 / rc=abr / mbtree=1 / bitrate=2200 / ratetol=1.0 / qcomp=0.60 / qpmin=0 / qpmax=69 / qpstep=4 / vbv_maxrate=2860 / vbv_bufsize=3300 / nal_hrd=none / filler=0 / ip_ratio=1.40 / aq=1:1.00
Default                                  : Yes
Forced                                   : No

Audio
ID                                       : 2
Format                                   : AAC LC
Format/Info                              : Advanced Audio Codec Low Complexity
Codec ID                                 : A_AAC-2
Duration                                 : 40 min 13 s
Bit rate                                 : 96.0 kb/s
Channel(s)                               : 2 channels
Channel layout                           : L R
Sampling rate                            : 48.0 kHz
Frame rate                               : 46.875 FPS (1024 SPF)
Compression mode                         : Lossy
Stream size                              : 27.7 MiB (4%)
Title                                    : Cinemaghar
Default                                  : Yes
Forced                                   : No



[img] [/img]


[/center]
Category:Other > Other
Lang:Hindi
Total Size:637.16 MB
Info Hash:10314bc1fbfdb68fc10125909468dee72e275b46
Added By:Cinemaghar
Date Added:12-04-2019 12:49:35
Views:78
Hits:17


Ratings:Not Yet Rated (Log in to rate it)

  


Tracker:
udp://tracker.coppersurfer.tk:6969/announce

This Torrent also has backup trackers
URLSeedersLeechersCompleted
http://tracker.electro-torrent.pl:80/announce001
https://bwt.pw/announce.php488599
http://tracker.internetwarriors.net:1337/announce5101
http://tracker3.itzmx.com:6961/announce409
http://tracker1.itzmx.com:8080/announce409


File List: 


Comments

NOCOMMENTS

Page Generated In 0.000000 secs.