[Login] or [Signup]

,
Search











Latest Posters
Pow pandi 2019 Hindi Dubbed Movie Dhanush HDRip 800MB / Hindi Dubbed - Movies
Mirch Masala 2019 Hindi Dubbed Movie HDRip 800MB / Hindi Dubbed - Movies
Kabar Ka Keher 2019 Hindi Dubbed Movie HDRip 800MB / Hindi Dubbed - Movies
Gabbar Sher 2019 Hindi Dubbed Movie HDRip 800MB / Hindi Dubbed - Movies
Apman Ki Aag 2019 Hindi Dubbed Movie HDRip 800MB / Hindi Dubbed - Movies
Aag Ka Gola 2019 Hindi Dubbed Movie HDRip 800MB / Hindi Dubbed - Movies

Torrent Details For "Girlfriend (2019) - 1CD - PDVDRIP - AC3 - X264 (Marathi) {[email protected]}"

Girlfriend (2019) - 1CD - PDVDRIP - AC3 - X264 (Marathi) {[email protected]}

Download this torrent -- Magnet Download

Health:
Seeds: 1
Leechers: 0
Speed: No Activity
Completed: 2 [Who's Completed] [Request a RE-Seed]
Last Checked: 15-09-2019 08:11:32


Details
Name:Girlfriend (2019) - 1CD - PDVDRIP - AC3 - X264 (Marathi) {[email protected]}
Description:
[center]



[/center]





Complete name              : C:\MYDVD\VIDEO_TS\Girlfriend (2019) - 1CD - PDVDRIP - AC3 - X264 ([email protected] Excuslve).mp4
Format                      : MPEG-4
Format profile              : Base Media
Codec ID                    : isom
File size                  : 700 MiB
Duration                    : 2h 13mn
Overall bit rate            : 732 Kbps
Encoded date                : UTC 2019-08-28 06:22:52
Tagged date                : UTC 2019-08-28 06:22:52

Video
ID                          : 1
Format                      : AVC
Format/Info                : Advanced Video Codec
Format profile              : [email protected]
Format settings, CABAC      : Yes
Format settings, ReFrames  : 4 frames
Codec ID                    : avc1
Codec ID/Info              : Advanced Video Coding
Duration                    : 2h 13mn
Bit rate                    : 666 Kbps
Maximum bit rate            : 3 759 Kbps
Width                      : 352 pixels
Height                      : 272 pixels
Display aspect ratio        : 1.294
Frame rate mode            : Constant
Frame rate                  : 25.000 fps
Color space                : YUV
Chroma subsampling          : 4:2:0
Bit depth                  : 8 bits
Scan type                  : Progressive
Bits/(Pixel*Frame)          : 0.278
Stream size                : 637 MiB (91%)
Writing library            : x264 core 157 r2935 545de2f
Encoding settings          : cabac=1 / ref=3 / deblock=1:0:0 / analyse=0x3:0x113 / me=hex / subme=7 / psy=1 / psy_rd=1.00:0.00 / mixed_ref=1 / me_range=16 / chroma_me=1 / trellis=1 / 8x8dct=1 / cqm=0 / deadzone=21,11 / fast_pskip=1 / chroma_qp_offset=-2 / threads=6 / lookahead_threads=1 / sliced_threads=0 / nr=0 / decimate=1 / interlaced=0 / bluray_compat=0 / constrained_intra=0 / bframes=3 / b_pyramid=2 / b_adapt=1 / b_bias=0 / direct=1 / weightb=1 / open_gop=0 / weightp=2 / keyint=250 / keyint_min=25 / scenecut=40 / intra_refresh=0 / rc_lookahead=40 / rc=2pass / mbtree=1 / bitrate=666 / ratetol=1.0 / qcomp=0.60 / qpmin=0 / qpmax=69 / qpstep=4 / cplxblur=20.0 / qblur=0.5 / ip_ratio=1.40 / aq=1:1.00
Encoded date                : UTC 2019-08-28 06:22:52
Tagged date                : UTC 2019-08-28 06:25:51

Audio
ID                          : 2
Format                      : AC-3
Format/Info                : Audio Coding 3
Mode extension              : CM (complete main)
Format settings, Endianness : Big
Codec ID                    : ac-3
Duration                    : 2h 13mn
Bit rate mode              : Constant
Bit rate                    : 64.0 Kbps
Maximum bit rate            : 67.6 Kbps
Channel(s)                  : 2 channels
Channel positions          : Front: L R
Sampling rate              : 48.0 KHz
Bit depth                  : 16 bits
Compression mode            : Lossy
Stream size                : 61.2 MiB (9%)
Language                    : new
Encoded date                : UTC 2019-08-28 06:25:41
Tagged date                : UTC 2019-08-28 06:25:51



only one time watchable print those who wanted quality wait for another print

Watch online or direct download

https://verystream.com/stream/i48gYnfdQ4T/Girlfriend_%282019%29_-_1CD_-_PDVDRIP_-_AC3_-_X264_%28S%40ket_Excuslve%29.mp4
Category:Marathi > Movies
Lang:Marathi
Total Size:700.04 MB
Info Hash:cb6aeaa83f4e153fa692514512648ca2c928fef1
Added By:saket
Date Added:07-09-2019 15:16:19
Views:63
Hits:16


Ratings:Not Yet Rated (Log in to rate it)



File List: 

Peers List:
Port Uploaded Downloaded Ratio left Ready% Seed Conn. Client Nick
241730.00 B0.00 B---0.00 B100.00%yesnouTorrent/355(111915293)(45341)Unknown User



Comments

NOCOMMENTS

Page Generated In 0.000000 secs.