[Login] or [Signup]

,
Search











Latest Posters
Pow pandi 2019 Hindi Dubbed Movie Dhanush HDRip 800MB / Hindi Dubbed - Movies
Mirch Masala 2019 Hindi Dubbed Movie HDRip 800MB / Hindi Dubbed - Movies
Kabar Ka Keher 2019 Hindi Dubbed Movie HDRip 800MB / Hindi Dubbed - Movies
Gabbar Sher 2019 Hindi Dubbed Movie HDRip 800MB / Hindi Dubbed - Movies
Apman Ki Aag 2019 Hindi Dubbed Movie HDRip 800MB / Hindi Dubbed - Movies
Aag Ka Gola 2019 Hindi Dubbed Movie HDRip 800MB / Hindi Dubbed - Movies

Torrent Details For "Kshatriya (1993 ) Hindi 720p WEBHD WoM ::miRAFI::"

Kshatriya (1993 ) Hindi 720p WEBHD WoM ::miRAFI::

Download this torrent -- Magnet Download

Health:
Seeds: 0
Leechers: 0
Completed:
Last Checked: 10-09-2019 08:07:59
External Torrent
UPDATE_STATS


Details
Name:Kshatriya (1993 ) Hindi 720p WEBHD WoM ::miRAFI::
Description:




==================================================
Join our Torrent sit >>> https://crazyhd.com

Invitation >>> https://m.facebook.com/groups/crazyhd/
==================================================



General
Format                                   : MPEG-4
Format profile                           : Base Media / Version 2
Codec ID                                 : mp42 (isom/mp42)
File size                                : 878 MiB
Duration                                 : 3 h 7 min
Overall bit rate mode                    : Variable
Overall bit rate                         : 656 kb/s

Video
Format                                   : AVC
Format/Info                              : Advanced Video Codec
Format profile                           : [email protected]
Format settings                          : CABAC / 3 Ref Frames
Format settings, CABAC                   : Yes
Format settings, RefFrames               : 3 frames
Codec ID                                 : avc1
Codec ID/Info                            : Advanced Video Coding
Duration                                 : 3 h 7 min
Bit rate                                 : 527 kb/s
Width                                    : 1 280 pixels
Height                                   : 720 pixels
Display aspect ratio                     : 16:9
Frame rate mode                          : Constant
Frame rate                               : 25.000 FPS
Color space                              : YUV
Chroma subsampling                       : 4:2:0
Bit depth                                : 8 bits
Scan type                                : Progressive
Bits/(Pixel*Frame)                       : 0.023
Stream size                              : 705 MiB (80%)
Color range                              : Limited
Codec configuration box                  : avcC

Audio
Format                                   : AAC LC
Format/Info                              : Advanced Audio Codec Low Complexity
Codec ID                                 : mp4a-40-2
Duration                                 : 3 h 7 min
Bit rate mode                            : Variable
Bit rate                                 : 126 kb/s
Channel(s)                               : 2 channels
Channel layout                           : L R
Sampling rate                            : 44.1 kHz
Frame rate                               : 43.066 FPS (1024 SPF)
Compression mode                         : Lossy
Stream size                              : 168 MiB (19%)










:love  :love  :love  :love  :love  :love  :love  
Category:Bollywood > WebHD
Lang:Hindi
Total Size:877.97 MB
Info Hash:1ae36720535c48a84118f18cc040a50f4ab0dcd7
Added By:miRAFI
Date Added:08-09-2019 10:22:43
Views:79
Hits:12


Ratings:Not Yet Rated (Log in to rate it)

  


Tracker:


This Torrent also has backup trackers
URLSeedersLeechersCompleted
http://siena.crazyhd.com/announce.php?pid=1b1507052da3ce1a2e1b0c54f8a13335000
http://z.crazyhd.com:2710/1b1507052da3ce1a2e1b0c54f8a13335/announce000


File List: 


Comments

<< Previous      Next >>
1 - 1

[Report] Posted: 08-09-2019 at 17:30:48
africa



Uploaded: 0.00 B
Downloaded: 0.00 B
Ratio: ---

Thanks for the share

1 - 1
<< Previous      Next >>


Page Generated In 0.000000 secs.