[Login] or [Signup]

,
Search











Latest Posters
Pow pandi 2019 Hindi Dubbed Movie Dhanush HDRip 800MB / Hindi Dubbed - Movies
Mirch Masala 2019 Hindi Dubbed Movie HDRip 800MB / Hindi Dubbed - Movies
Kabar Ka Keher 2019 Hindi Dubbed Movie HDRip 800MB / Hindi Dubbed - Movies
Gabbar Sher 2019 Hindi Dubbed Movie HDRip 800MB / Hindi Dubbed - Movies
Apman Ki Aag 2019 Hindi Dubbed Movie HDRip 800MB / Hindi Dubbed - Movies
Aag Ka Gola 2019 Hindi Dubbed Movie HDRip 800MB / Hindi Dubbed - Movies

Torrent Details For "John Wick Chapter 3 (2019) 720p BluRay x264 AAC Hindi Fan Dubbed [TEAM BWT] -=!MrSky!=-"

John Wick Chapter 3 (2019) 720p BluRay x264 AAC Hindi Fan Dubbed [TEAM BWT] -=!MrSky!=-

Download this torrent -- Magnet Download

Health:
Seeds: 1
Leechers: 19
Completed: 10 
Last Checked: 12-09-2019 05:05:13
External Torrent
UPDATE_STATS


Details
Name:John Wick Chapter 3 (2019) 720p BluRay x264 AAC Hindi Fan Dubbed [TEAM BWT] -=!MrSky!=-
Description:






General

Format                                   : Matroska
Format version                           : Version 4
File size                                : 944 MiB
Duration                                 : 2 h 9 min
Overall bit rate                         : 1 017 kb/s
Movie name                               : [TEAM BWT] -=!MrSky!=-
Encoded date                             : UTC 2019-08-23 06:37:36
Writing application                      : mkvmerge v25.0.0 ('Prog Noir') 64-bit
Writing library                          : libebml v1.3.6 + libmatroska v1.4.9

Video
ID                                       : 1
Format                                   : AVC
Format/Info                              : Advanced Video Codec
Format profile                           : [email protected]
Format settings                          : CABAC / 8 Ref Frames
Format settings, CABAC                   : Yes
Format settings, RefFrames               : 8 frames
Codec ID                                 : V_MPEG4/ISO/AVC
Duration                                 : 2 h 9 min
Bit rate                                 : 920 kb/s
Width                                    : 1 280 pixels
Height                                   : 500 pixels
Display aspect ratio                     : 2.560
Frame rate mode                          : Constant
Frame rate                               : 23.976 (24000/1001) FPS
Color space                              : YUV
Chroma subsampling                       : 4:2:0
Bit depth                                : 8 bits
Scan type                                : Progressive
Bits/(Pixel*Frame)                       : 0.060
Stream size                              : 854 MiB (90%)
Title                                    : [TEAM BWT] -=!MrSky!=-
Writing library                          : x264 core 142 r2479 dd79a61
Encoding settings                        : cabac=1 / ref=8 / deblock=1:0:0 / analyse=0x3:0x113 / me=umh / subme=9 / psy=1 / psy_rd=1.00:0.00 / mixed_ref=1 / me_range=16 / chroma_me=1 / trellis=2 / 8x8dct=1 / cqm=0 / deadzone=21,11 / fast_pskip=1 / chroma_qp_offset=-2 / threads=72 / lookahead_threads=3 / sliced_threads=0 / nr=0 / decimate=1 / interlaced=0 / bluray_compat=0 / constrained_intra=0 / bframes=8 / b_pyramid=2 / b_adapt=1 / b_bias=0 / direct=1 / weightb=1 / open_gop=0 / weightp=2 / keyint=240 / keyint_min=24 / scenecut=40 / intra_refresh=0 / rc_lookahead=40 / rc=2pass / mbtree=1 / bitrate=920 / ratetol=1.0 / qcomp=0.60 / qpmin=0 / qpmax=69 / qpstep=4 / cplxblur=20.0 / qblur=0.5 / ip_ratio=1.40 / aq=1:1.00
Default                                  : Yes
Forced                                   : No
Color range                              : Limited
Color primaries                          : BT.709
Transfer characteristics                 : BT.709
Matrix coefficients                      : BT.709

Audio
ID                                       : 2
Format                                   : AAC LC SBR
Format/Info                              : Advanced Audio Codec Low Complexity with Spectral Band Replication
Commercial name                          : HE-AAC
Format settings                          : NBC
Codec ID                                 : A_AAC-5
Duration                                 : 2 h 9 min
Bit rate                                 : 96.0 kb/s
Channel(s)                               : 2 channels
Channel layout                           : L R
Sampling rate                            : 48.0 kHz
Frame rate                               : 23.438 FPS (2048 SPF)
Compression mode                         : Lossy
Delay relative to video                  : -105 ms
Stream size                              : 89.1 MiB (9%)
Title                                    : [TEAM BWT] -=!MrSky!=-
Default                                  : Yes
Forced                                   : Yes





Category:Hindi Dubbed > Movies
Lang:Hindi
Total Size:944.39 MB
Info Hash:3b958e6fcb8ae2c7b7c9e997f8c16a2116222e15
Added By:MrSky
Date Added:11-09-2019 08:23:58
Views:48
Hits:15


Ratings:Not Yet Rated (Log in to rate it)

  


Tracker:
udp://tracker.openbittorrent.com:80/announce


File List: 


Comments

NOCOMMENTS

Page Generated In 0.000000 secs.