[Login] or [Signup]

,
Search











Latest Posters
Kadaram Kondan.2019.1080p.AMZN.WeB.DL.H264.DDP.5.1.DusIcTv / Tamil - Movies
Ninu Veedani Needanu Nene.2019.1080p.AMZN.WeB.DL.H264.DDP.5.1.DusIcTv / Telugu - Movies
Nabab 2019 Bangla Movie Shakib Khan HDRip 1GB / Bangla - Movies
Devon Ke Dev... Mahadev (2011) Hindi - {Episodes 224 To 344 } - 720p WEB-DL - x264 - AAC 2.0 - Sun George / Bollywood - WebHD
The Avengers Earths Mightiest Heroes [2010-12] Complete S01 1080p Bluray x 264 Duel Aud [Hin DD 2.0 + Eng DDP 5.1] - Esub Reperza-Cinemaghar  / Hollywood - Anime, Cartoon
The Avengers Earths Mightiest Heroes [2010-12] Complete S01 720p Bluray x 264 Duel Aud [Hin DD 2.0 + Eng DDP 5.1] - Esub Reperza-Cinemaghar  / Hollywood - Anime, Cartoon

Torrent Details For "Mighty Little Bheem S01 - Episode 1-21 - 1080p Multi NF WEB-DL DDP 5.1 ESub - DusIcTv"

Mighty Little Bheem S01 - Episode 1-21 - 1080p Multi NF WEB-DL DDP 5.1 ESub - DusIcTv

Download this torrent -- Magnet Download

Health:
Seeds: 19
Leechers: 45
Completed:
Last Checked: 13-04-2019 14:05:10
External Torrent
UPDATE_STATS


Details
Name:Mighty Little Bheem S01 - Episode 1-21 - 1080p Multi NF WEB-DL DDP 5.1 ESub - DusIcTv
Description:



Mighty Little Bheem S01 - Episode 1-21 - 1080p Multi NF WEB-DL DDP 5.1 ESub - DusIcTv


General
Complete name                            : Mighty Little Bheem S01E04.mkv
Format                                   : Matroska
Format version                           : Version 4 / Version 2
File size                                : 367 MiB
Duration                                 : 6 min 30 s
Overall bit rate mode                    : Variable
Overall bit rate                         : 7 884 kb/s
Encoded date                             : UTC 2019-04-12 11:37:33
Writing application                      : mkvmerge v32.0.0 ('Astral Progressions') 64-bit
Writing library                          : libebml v1.3.7 + libmatroska v1.5.0

Video
ID                                       : 1
Format                                   : AVC
Format/Info                              : Advanced Video Codec
Format profile                           : [email protected]
Format settings                          : CABAC / 3 Ref Frames
Format settings, CABAC                   : Yes
Format settings, RefFrames               : 3 frames
Codec ID                                 : V_MPEG4/ISO/AVC
Duration                                 : 6 min 30 s
Bit rate mode                            : Variable
Bit rate                                 : 6 190 kb/s
Maximum bit rate                         : 9 285 kb/s
Width                                    : 1 920 pixels
Height                                   : 1 080 pixels
Display aspect ratio                     : 16:9
Frame rate mode                          : Constant
Frame rate                               : 25.000 FPS
Color space                              : YUV
Chroma subsampling                       : 4:2:0
Bit depth                                : 8 bits
Scan type                                : Progressive
Bits/(Pixel*Frame)                       : 0.119
Stream size                              : 287 MiB (78%)
Writing library                          : x264 core 148 r2715 7e75228
Default                                  : Yes
Forced                                   : No

Audio #1, #2 & #3
Format                                   : E-AC-3
Format/Info                              : Enhanced Audio Coding 3
Codec ID                                 : A_EAC3
Duration                                 : 6 min 30 s
Bit rate mode                            : Constant
Bit rate                                 : 640 kb/s
Channel(s)                               : 6 channels
Channel positions                        : Front: L C R, Side: L R, LFE
Sampling rate                            : 48.0 kHz
Frame rate                               : 187.500 FPS (256 SPF)
Compression mode                         : Lossy
Stream size                              : 29.8 MiB (8%)
Language                                 : No Dialogues, English & Hindi (Audio Description)
Service kind                             : Complete Main
Default                                  : Yes
Forced                                   : No

Text
ID                                       : 5
Format                                   : UTF-8
Codec ID                                 : S_TEXT/UTF8
Codec ID/Info                            : UTF-8 Plain Text
Duration                                 : 5 min 45 s
Bit rate                                 : 27 b/s
Count of elements                        : 107
Stream size                              : 1.16 KiB (0%)
Title                                    : English
Language                                 : English
Default                                  : Yes
Forced                                   : Yes







Quote:

- 1080p WEBHD, 5.1 Audio & English Subtitle!
- Enjoy DUS & ICTV Exclusive Release!

In case of re-seed on any torrent, please pm.
If you share this torrent anywhere, give credits to LP1 @ DusIcTv.
Category:Other > Other
Lang:Unknown/NA
Total Size:7.43 GB
Info Hash:974df0d3c7915ac844f1dd09914f6c3151e529c2
Added By:LP1BWT
Date Added:13-04-2019 04:15:28
Views:49
Hits:14


Ratings:Not Yet Rated (Log in to rate it)

  


Tracker:
udp://tracker.torrent.eu.org:451/announce

This Torrent also has backup trackers
URLSeedersLeechersCompleted
https://3.tracker.eu.org:443/announce000
https://tracker.parrotsec.org:443/announce110
http://opentracker.h4ck.me:6969/announce241
http://web4.obit.ru:80/announce000
http://gwp2-v19.rinet.ru:80/announce241
http://mail2.zelenaya.net:80/announce231
https://bwt.pw/announce.php12336


File List: 


Comments

<< Previous      Next >>
1 - 2

[Report] Posted: 13-04-2019 at 05:40:04
SamAli



Uploaded: 641.56 MB
Downloaded: 14.54 GB
Ratio: 0.04

Nice Sir

[Report] Posted: 13-04-2019 at 09:13:10
Rkmania



Uploaded: 6.62 GB
Downloaded: 4.07 GB
Ratio: 1.63

:)  :)  :)  :)  :)
Rkmania

1 - 2
<< Previous      Next >>


Page Generated In 0.000000 secs.