[Login] or [Signup]

,
Search











Latest Posters
Okka Ammayi Thappa (2016) HDRip x264 HiNdi Dubb AAC[PherariMon] / South-Dubbed - Movies
VA - New Music Releases Week 42 of 2019 (Mp3 320kbps Songs) [PMEDIA] / Hollywood - Music
Jaathre (2015) HDRip x264 HiNdi Dubb AAC[PherariMon] / Softwares - Mac and Other OS
Bawali Unlimited (2012) Bengali Movie - HDRip[x264 - AAC(2.1Ch) / Bangla - Movies
Thadam 2019 Hindi Dubbed Movie HDRip 700MB / Hindi Dubbed - Movies
Tyson - Ek Police Officer 2019 Hindi Dubbed Movie HDRip 700MB / Hindi Dubbed - Movies

Torrent Details For "WAR (2019) Hindi Proper HQ PreDVD - 1080p - x264 - HQ Line Aud - 2.2GB [miRAFI]"

WAR (2019) Hindi Proper HQ PreDVD - 1080p - x264 - HQ Line Aud - 2.2GB [miRAFI]

Download this torrent -- Magnet Download

Health:
Seeds: 0
Leechers: 0
Completed:
Last Checked: 03-10-2019 11:44:56
External Torrent
UPDATE_STATS


Details
Name:WAR (2019) Hindi Proper HQ PreDVD - 1080p - x264 - HQ Line Aud - 2.2GB [miRAFI]
Description:




==================================================
Join our Torrent sit >>> https://crazyhd.com

Invitation >>> https://m.facebook.com/groups/crazyhd/
==================================================




Storyline
The title of the much-anticipated action entertainer that pits two of the biggest action superstars of our generation, Hrithik Roshan and Tiger Shroff, in a massive sho wdown against each other has been aptly titled WAR. The biggest action entertainer of the year will see both these incredible action stars push their bodies to the limit to pull off never-seen-before, death-defying action stunts that will keep you on the edge of your seats. War is set to be a visual spectacle for quintessential action cinema lovers as they would witness Hrithik and Tiger pull off jaw-dropping sequences as they try to beat each other. Director Siddharth Anand says, "When you bring two of the biggest and the best action superstars of India in one film and pit them against each other, you need a title that justifies the promise of a massive showdown. Hrithik and Tiger will be seen going at each other ferociously and mercilessly and audiences will want to see who outwits whom in this incredible fight. WAR




General
Complete name                            : WAR (2019) Hindi Proper HQ PreDVD - 1080p - x264 - HQ Line Aud - 2.2GB [miRAFI].mkv
Format                                   : Matroska
Format version                           : Version 4
File size                                : 2.21 GiB
Duration                                 : 2 h 25 min
Overall bit rate mode                    : Variable
Overall bit rate                         : 2 180 kb/s
Movie name                               : www.TamilMV.bid
Encoded date                             : UTC 2019-10-02 16:47:34
Writing application                      : mkvmerge v7.1.0 ('Good Love') 32bit built on Jul 27 2014 12:59:18
Writing library                          : libebml v1.3.0 + libmatroska v1.4.1

Video
ID                                       : 1
Format                                   : AVC
Format/Info                              : Advanced Video Codec
Format profile                           : [email protected]
Format settings                          : CABAC / 4 Ref Frames
Format settings, CABAC                   : Yes
Format settings, Reference frames        : 4 frames
Codec ID                                 : V_MPEG4/ISO/AVC
Duration                                 : 2 h 25 min
Bit rate                                 : 2 096 kb/s
Width                                    : 1 920 pixels
Height                                   : 800 pixels
Display aspect ratio                     : 2.40:1
Frame rate mode                          : Constant
Frame rate                               : 25.000 FPS
Color space                              : YUV
Chroma subsampling                       : 4:2:0
Bit depth                                : 8 bits
Scan type                                : Progressive
Bits/(Pixel*Frame)                       : 0.055
Stream size                              : 2.07 GiB (94%)
Title                                    : www.TamilMV.bid
Writing library                          : x264 core 157 r2935 545de2f
Encoding settings                        : cabac=1 / ref=1 / deblock=1:0:0 / *censored*yse=0x3:0x113 / me=hex / subme=2 / psy=1 / psy_rd=1.00:0.00 / mixed_ref=0 / me_range=16 / chroma_me=1 / trellis=0 / 8x8dct=1 / cqm=0 / deadzone=21,11 / fast_pskip=1 / chroma_qp_offset=0 / threads=25 / lookahead_threads=6 / sliced_threads=0 / nr=0 / decimate=1 / interlaced=0 / bluray_compat=0 / constrained_intra=0 / bframes=3 / b_pyramid=2 / b_adapt=1 / b_bias=0 / direct=1 / weightb=1 / open_gop=0 / weightp=1 / keyint=250 / keyint_min=25 / scenecut=40 / intra_refresh=0 / rc_lookahead=10 / rc=abr / mbtree=1 / bitrate=2096 / ratetol=1.0 / qcomp=0.60 / qpmin=0 / qpmax=69 / qpstep=4 / ip_ratio=1.40 / aq=1:1.00
Language                                 : Hindi
Default                                  : Yes
Forced                                   : No

Audio
ID                                       : 2
Format                                   : MPEG Audio
Format version                           : Version 1
Format profile                           : Layer 3
Format settings                          : Joint stereo
Codec ID                                 : A_MPEG/L3
Codec ID/Hint                            : MP3
Duration                                 : 2 h 25 min
Bit rate mode                            : Variable
Bit rate                                 : 90.3 kb/s
Nominal bit rate                         : 96.0 kb/s
Channel(s)                               : 2 channels
Sampling rate                            : 48.0 kHz
Frame rate                               : 41.667 FPS (1152 SPF)
Compression mode                         : Lossy
Stream size                              : 93.7 MiB (4%)
Title                                    : www.TamilMV.bid
Writing library                          : LAME3.99r
Encoding settings                        : -m j -V 4 -q 3 -lowpass 15.1 --abr 96
Language                                 : Hindi
Default                                  : Yes
Forced                                   : No











:love  :love  :love  :love  :love  :love  :love
Category:Bollywood > Pre-Release
Lang:Hindi
Total Size:2.21 GB
Info Hash:701339334a2aee49b859e34aec6af3370d95ce33
Added By:miRAFI
Date Added:03-10-2019 09:56:04
Views:526
Hits:61


Ratings:Not Yet Rated (Log in to rate it)

  


Tracker:


This Torrent also has backup trackers
URLSeedersLeechersCompleted
http://siena.crazyhd.com/announce.php?pid=1b1507052da3ce1a2e1b0c54f8a13335000
http://z.crazyhd.com:2710/1b1507052da3ce1a2e1b0c54f8a13335/announce000


File List: 


Comments

<< Previous      Next >>
1 - 1

[Report] Posted: 03-10-2019 at 22:08:31
darbar



Uploaded: 0.00 B
Downloaded: 0.00 B
Ratio: ---

Thank you.

1 - 1
<< Previous      Next >>


Page Generated In 0.000000 secs.