[Login] or [Signup]

,
Search











Latest Posters
Okka Ammayi Thappa (2016) HDRip x264 HiNdi Dubb AAC[PherariMon] / South-Dubbed - Movies
VA - New Music Releases Week 42 of 2019 (Mp3 320kbps Songs) [PMEDIA] / Hollywood - Music
Jaathre (2015) HDRip x264 HiNdi Dubb AAC[PherariMon] / Softwares - Mac and Other OS
Bawali Unlimited (2012) Bengali Movie - HDRip[x264 - AAC(2.1Ch) / Bangla - Movies
Thadam 2019 Hindi Dubbed Movie HDRip 700MB / Hindi Dubbed - Movies
Tyson - Ek Police Officer 2019 Hindi Dubbed Movie HDRip 700MB / Hindi Dubbed - Movies

Torrent Details For "Men in Black International (2019) 720p BluRay x264 [Dual-Audio][Hindi ORG 2.0 - English] E..."

Men in Black International (2019) 720p BluRay x264 [Dual-Audio][Hindi ORG 2.0 - English] E...

Download this torrent -- Magnet Download

Health:
Seeds: 0
Leechers: 0
Speed: No Activity
Completed: 9 [Who's Completed] [Request a RE-Seed]
Last Checked: 15-10-2019 13:52:28


Details
Name:Men in Black International (2019) 720p BluRay x264 [Dual-Audio][Hindi ORG 2.0 - English] E...
Description:
[center]





Format                                   : AVC
Format/Info                              : Advanced Video Codec
Format profile                           : [email protected]
Format settings                          : CABAC / 8 Ref Frames
Format settings, CABAC                   : Yes
Format settings, RefFrames               : 8 frames
Codec ID                                 : V_MPEG4/ISO/AVC
Duration                                 : 1 h 54 min
Bit rate                                 : 1 071 kb/s
Width                                    : 1 280 pixels
Height                                   : 640 pixels
Display aspect ratio                     : 2.000
Frame rate mode                          : Constant
Frame rate                               : 23.976 (24000/1001) FPS
Color space                              : YUV
Chroma subsampling                       : 4:2:0
Bit depth                                : 8 bits
Scan type                                : Progressive
Bits/(Pixel*Frame)                       : 0.055
Stream size                              : 880 MiB (81%)
Writing library                          : x264 core 148 r2638 7599210
Encoding settings                        : cabac=1 / ref=8 / deblock=1:0:0 / analyse=0x3:0x133 / me=hex / subme=9 / psy=1 / psy_rd=1.00:0.15 / mixed_ref=1 / me_range=16 / chroma_me=1 / trellis=2 / 8x8dct=1 / cqm=0 / deadzone=21,11 / fast_pskip=1 / chroma_qp_offset=-3 / threads=12 / lookahead_threads=1 / sliced_threads=0 / nr=200 / decimate=1 / interlaced=0 / bluray_compat=0 / constrained_intra=0 / bframes=3 / b_pyramid=2 / b_adapt=1 / b_bias=0 / direct=3 / weightb=1 / open_gop=0 / weightp=2 / keyint=240 / keyint_min=23 / scenecut=40 / intra_refresh=0 / rc_lookahead=40 / rc=2pass / mbtree=1 / bitrate=1071 / ratetol=1.0 / qcomp=0.60 / qpmin=0 / qpmax=69 / qpstep=4 / cplxblur=20.0 / qblur=0.5 / vbv_maxrate=62500 / vbv_bufsize=78125 / nal_hrd=none / filler=0 / ip_ratio=1.40 / aq=1:1.00
Default                                  : Yes
Forced                                   : No
Color range                              : Limited
Color primaries                          : Generic film
Transfer characteristics                 : BT.709
Matrix coefficients                      : BT.709

Audio #1
ID                                       : 2
Format                                   : AAC
Format/Info                              : Advanced Audio Codec
Format profile                           : HE-AAC / LC
Format settings                          : Explicit
Codec ID                                 : A_AAC-2
Duration                                 : 1 h 54 min
Bit rate                                 : 128 kb/s
Channel(s)                               : 2 channels
Channel positions                        : Front: L R
Sampling rate                            : 48.0 kHz / 24.0 kHz
Frame rate                               : 23.438 FPS (1024 SPF)
Compression mode                         : Lossy
Delay relative to video                  : 31 ms
Stream size                              : 105 MiB (10%)
Language                                 : Hindi
Default                                  : Yes
Forced                                   : Yes

Audio #2
ID                                       : 3
Format                                   : AAC
Format/Info                              : Advanced Audio Codec
Format profile                           : LC
Codec ID                                 : A_AAC-2
Duration                                 : 1 h 54 min
Bit rate                                 : 127 kb/s
Channel(s)                               : 6 channels
Channel positions                        : Front: L C R, Side: L R, LFE
Sampling rate                            : 48.0 kHz
Frame rate                               : 46.875 FPS (1024 SPF)
Compression mode                         : Lossy
Delay relative to video                  : 9 ms
Stream size                              : 104 MiB (10%)
Language                                 : English
Default                                  : No
Forced                                   : No

Text
ID                                       : 4
Format                                   : UTF-8
Codec ID                                 : S_TEXT/UTF8
Codec ID/Info                            : UTF-8 Plain Text
Duration                                 : 1 h 44 min
Bit rate                                 : 73 b/s
Count of elements                        : 1778
Stream size                              : 56.3 KiB (0%)
Default                                  : Yes
Forced                                   : No








[/center]
Category:Hindi Dubbed > Movies
Lang:Hindi
Total Size:1.07 GB
Info Hash:6d8aaa71e82f5200321a02e99f261eb0abe190fe
Added By:downloadhub
Date Added:07-10-2019 10:28:06
Views:64
Hits:10


Ratings:Not Yet Rated (Log in to rate it)



File List: 

Peers List:
No Active Peers


Comments

NOCOMMENTS

Page Generated In 0.000000 secs.