[Login] or [Signup]

,
Search











Latest Posters
Yaakkai (2017) HDRip x264 HiNdi Dubb AAC[PherariMon] / South-Dubbed - Movies
Cosmic Sex (2015) || Bengali 1080P || WEBRiP x265 10 bit HEVC AC3 || [miRAFI] / Bangla - Movies
Joker (2019) 720p HC HDRip x264 AAC - Downloadhub / Hollywood - Movies
Bypass Road (2019) Hindi 720p PreDVD Rip x264 AAC 1.2GB CineVood Exclusive / Bollywood - Pre-Release
Bala (2019) Hindi 720p PreDVD Rip x264 AAC 1.2GB CineVood Exclusive / Bollywood - Pre-Release
VA - NOW 100 Hits Party (2019) Mp3 320kbps [PMEDIA] ⭐️ / Hollywood - Music

Torrent Details For "Fast And Furious Presents Hobbs And Shaw (2019) 720p BluRay x264 [Dual-Audio][Hindi 5.1 - ..."

Fast And Furious Presents Hobbs And Shaw (2019) 720p BluRay x264 [Dual-Audio][Hindi 5.1 - ...

Download this torrent -- Magnet Download

Health:
Seeds: 1
Leechers: 0
Speed: No Activity
Completed: 21 [Who's Completed] [Request a RE-Seed]
Last Checked: 21-11-2019 12:39:48


Details
Name:Fast And Furious Presents Hobbs And Shaw (2019) 720p BluRay x264 [Dual-Audio][Hindi 5.1 - ...
Description:
[center]





Format                                   : AVC
Format/Info                              : Advanced Video Codec
Format profile                           : [email protected]
Format settings                          : CABAC / 8 Ref Frames
Format settings, CABAC                   : Yes
Format settings, RefFrames               : 8 frames
Codec ID                                 : V_MPEG4/ISO/AVC
Duration                                 : 2 h 16 min
Bit rate                                 : 1 072 kb/s
Width                                    : 1 280 pixels
Height                                   : 536 pixels
Display aspect ratio                     : 2.40:1
Frame rate mode                          : Constant
Frame rate                               : 23.976 (24000/1001) FPS
Color space                              : YUV
Chroma subsampling                       : 4:2:0
Bit depth                                : 8 bits
Scan type                                : Progressive
Bits/(Pixel*Frame)                       : 0.065
Stream size                              : 1.02 GiB (77%)
Writing library                          : x264 core 148 r2638 7599210
Encoding settings                        : cabac=1 / ref=8 / deblock=1:0:0 / analyse=0x3:0x133 / me=hex / subme=9 / psy=1 / psy_rd=1.00:0.15 / mixed_ref=1 / me_range=16 / chroma_me=1 / trellis=2 / 8x8dct=1 / cqm=0 / deadzone=21,11 / fast_pskip=1 / chroma_qp_offset=-3 / threads=12 / lookahead_threads=1 / sliced_threads=0 / nr=200 / decimate=1 / interlaced=0 / bluray_compat=0 / constrained_intra=0 / bframes=3 / b_pyramid=2 / b_adapt=1 / b_bias=0 / direct=3 / weightb=1 / open_gop=0 / weightp=2 / keyint=240 / keyint_min=23 / scenecut=40 / intra_refresh=0 / rc_lookahead=40 / rc=2pass / mbtree=1 / bitrate=1072 / ratetol=1.0 / qcomp=0.60 / qpmin=0 / qpmax=69 / qpstep=4 / cplxblur=20.0 / qblur=0.5 / vbv_maxrate=62500 / vbv_bufsize=78125 / nal_hrd=none / filler=0 / ip_ratio=1.40 / aq=1:1.00
Default                                  : Yes
Forced                                   : No
Color range                              : Limited
Color primaries                          : Generic film
Transfer characteristics                 : BT.709
Matrix coefficients                      : BT.709

Audio #1
ID                                       : 2
Format                                   : AAC
Format/Info                              : Advanced Audio Codec
Format profile                           : LC
Codec ID                                 : A_AAC-2
Duration                                 : 2 h 16 min
Bit rate                                 : 192 kb/s
Channel(s)                               : 6 channels
Channel positions                        : Front: L C R, Side: L R, LFE
Sampling rate                            : 44.1 kHz
Frame rate                               : 43.066 FPS (1024 SPF)
Compression mode                         : Lossy
Delay relative to video                  : 10 ms
Stream size                              : 185 MiB (14%)
Language                                 : Hindi
Default                                  : Yes
Forced                                   : Yes

Audio #2
ID                                       : 3
Format                                   : AAC
Format/Info                              : Advanced Audio Codec
Format profile                           : LC
Codec ID                                 : A_AAC-2
Duration                                 : 2 h 16 min
Bit rate                                 : 126 kb/s
Channel(s)                               : 6 channels
Channel positions                        : Front: L C R, Side: L R, LFE
Sampling rate                            : 48.0 kHz
Frame rate                               : 46.875 FPS (1024 SPF)
Compression mode                         : Lossy
Delay relative to video                  : 9 ms
Stream size                              : 123 MiB (9%)
Language                                 : English
Default                                  : No
Forced                                   : No

Text
ID                                       : 4
Format                                   : UTF-8
Codec ID                                 : S_TEXT/UTF8
Codec ID/Info                            : UTF-8 Plain Text
Duration                                 : 2 h 16 min
Bit rate                                 : 77 b/s
Count of elements                        : 2204
Stream size                              : 77.7 KiB (0%)
Default                                  : Yes
Forced                                   : No











[/center]
Category:Hindi Dubbed > Movies
Lang:Hindi
Total Size:1.33 GB
Info Hash:b1b57b02d5229e5173843757dbad534eb0cc4b63
Added By:downloadhub
Date Added:30-10-2019 09:47:37
Views:121
Hits:31


Ratings:Not Yet Rated (Log in to rate it)

  



File List: 

Peers List:
Port Uploaded Downloaded Ratio left Ready% Seed Conn. Client Nick
264330.00 B0.00 B---0.00 B100.00%yesnouTorrent/330B(28038)Unknown User



Comments

NOCOMMENTS

Page Generated In 0.000000 secs.