[Login] or [Signup]

,
Search











Latest Posters
Cosmic Sex (2015) || Bengali 1080P || WEBRiP x265 10 bit HEVC AC3 || [miRAFI] / Bangla - Movies
Joker (2019) 720p HC HDRip x264 AAC - Downloadhub / Hollywood - Movies
Bypass Road (2019) Hindi 720p PreDVD Rip x264 AAC 1.2GB CineVood Exclusive / Bollywood - Pre-Release
Bala (2019) Hindi 720p PreDVD Rip x264 AAC 1.2GB CineVood Exclusive / Bollywood - Pre-Release
VA - NOW 100 Hits Party (2019) Mp3 320kbps [PMEDIA] ⭐️ / Hollywood - Music
Wanted (2010)  Bengali Movie - HDRip[x264 - AAC(2.1Ch)] / Bangla - Movies

Torrent Details For "Zombieland (2009) 2160p UHD Remux HEVC HDR Atmos TrueHD Dual Audio [Eng 7.1 + Hindi 5.1 ]-..."

Zombieland (2009) 2160p UHD Remux HEVC HDR Atmos TrueHD Dual Audio [Eng 7.1 + Hindi 5.1 ]-...

Download this torrent -- Magnet Download

Health:
Seeds: 0
Leechers: 0
Completed:
Last Checked: 06-11-2019 23:44:40
External Torrent
UPDATE_STATS


Details
Name:Zombieland (2009) 2160p UHD Remux HEVC HDR Atmos TrueHD Dual Audio [Eng 7.1 + Hindi 5.1 ]-...
Description:
[center]




[b]Format : Matroska

Format version : Version 4
File size : 35.8 GiB
Duration : 1 h 27 min
Overall bit rate mode : Variable
Overall bit rate : 58.4 Mb/s
Encoded date : UTC 2019-11-06 05:55:24
Writing application : mkvmerge v29.0.0 ('Like It Or Not') 32-bit
Writing library : libebml v1.3.6 + libmatroska v1.4.9


Video
ID : 2
Format : HEVC
Format/Info : High Efficiency Video Coding
Commercial name : HDR10
Format profile : Main [email protected]@High
Codec ID : V_MPEGH/ISO/HEVC
Duration : 1 h 27 min
Bit rate : 53.6 Mb/s
Width : 3 840 pixels
Height : 2 160 pixels
Display aspect ratio : 16:9
Frame rate mode : Constant
Frame rate : 23.976 (24000/1001) FPS
Color space : YUV
Chroma subsampling : 4:2:0 (Type 2)
Bit depth : 10 bits
Bits/(Pixel*Frame) : 0.269
Stream size : 32.8 GiB (92%)
Language : English
Default : Yes
Forced : No
Color range : Limited
Color primaries : BT.2020
Transfer characteristics : PQ
Matrix coefficients : BT.2020 non-constant
Mastering display color primaries : Display P3
Mastering display luminance : min: 0.0050 cd/m2, max: 4000 cd/m2
Maximum Content Light Level : 10000 cd/m2
Maximum Frame-Average Light Level : 1166 cd/m2


Audio #1
ID : 3
Format : MLP FBA 16-ch
Format/Info : Meridian Lossless Packing FBA with 16-channel presentation
Commercial name : Dolby TrueHD with Dolby Atmos
Codec ID : A_TRUEHD
Duration : 1 h 27 min
Bit rate mode : Variable
Bit rate : 3 096 kb/s
Maximum bit rate : 4 956 kb/s
Channel(s) : 8 channels
Channel layout : L R C LFE Ls Rs Lb Rb
Sampling rate : 48.0 kHz
Frame rate : 1 200.000 FPS (40 SPF)
Compression mode : Lossless
Stream size : 1.90 GiB (5%)
Language : English
Default : Yes
Forced : No
Number of dynamic objects : 11
Bed channel count : 1 channel
Bed channel configuration : LFE


Audio #2
ID : 4
Format : AC-3
Format/Info : Audio Coding 3
Commercial name : Dolby Digital
Codec ID : A_AC3
Duration : 1 h 27 min
Bit rate mode : Constant
Bit rate : 640 kb/s
Channel(s) : 6 channels
Channel layout : L R C LFE Ls Rs
Sampling rate : 48.0 kHz
Frame rate : 31.250 FPS (1536 SPF)
Bit depth : 16 bits
Compression mode : Lossy
Stream size : 401 MiB (1%)
Language : English
Service kind : Complete Main
Default : No
Forced : No


Audio #3
ID : 34
Format : AC-3
Format/Info : Audio Coding 3
Commercial name : Dolby Digital
Codec ID : A_AC3
Duration : 1 h 27 min
Bit rate mode : Constant
Bit rate : 640 kb/s
Channel(s) : 6 channels
Channel layout : L R C LFE Ls Rs
Sampling rate : 48.0 kHz
Frame rate : 31.250 FPS (1536 SPF)
Bit depth : 16 bits
Compression mode : Lossy
Stream size : 401 MiB (1%)
Service kind : Complete Main
Default : No
Forced : No


Text #1
ID : 1
Format : PGS
Muxing mode : zlib
Codec ID : S_HDMV/PGS
Codec ID/Info : Picture based subtitle format used on BDs/HD-DVDs
Duration : 1 h 27 min
Bit rate : 28.8 kb/s
Count of elements : 1767
Stream size : 18.0 MiB (0%)
Language : Romanian
Default : Yes
Forced : No


Text #2
ID : 5
Format : PGS
Muxing mode : zlib
Codec ID : S_HDMV/PGS
Codec ID/Info : Picture based subtitle format used on BDs/HD-DVDs
Duration : 1 h 27 min
Bit rate : 37.5 kb/s
Count of elements : 2552
Stream size : 23.4 MiB (0%)
Language : English
Default : No
Forced : No


Menu
00:00:00.000 : :Chapter 01
00:04:53.293 : :Chapter 02
00:07:13.058 : :Chapter 03
00:12:37.757 : :Chapter 04
00:18:33.738 : :Chapter 05
00:24:07.529 : :Chapter 06
00:30:29.036 : :Chapter 07
00:36:39.072 : :Chapter 08
00:41:05.838 : :Chapter 09
00:45:54.293 : :Chapter 10
00:49:26.172 : :Chapter 11
00:55:55.936 : :Chapter 12
01:02:59.275 : :Chapter 13
01:08:10.795 : :Chapter 14
01:14:54.115 : :Chapter 15
01:19:47.533 : :Chapter 16



[/center]
Category:Hollywood > 4K
Lang:Unknown/NA
Total Size:35.77 GB
Info Hash:0014cf4552957939c7fdc58f25717a8179926e50
Added By:saturnweb
Date Added:06-11-2019 23:40:28
Views:50
Hits:3


Ratings:Not Yet Rated (Log in to rate it)


Tracker:
udp://tracker.openbittorrent.com:80/announce


File List: 


Comments

NOCOMMENTS

Page Generated In 0.000000 secs.