[Login] or [Signup]

,
Search











Latest Posters
Kadaram Kondan.2019.1080p.AMZN.WeB.DL.H264.DDP.5.1.DusIcTv / Tamil - Movies
Ninu Veedani Needanu Nene.2019.1080p.AMZN.WeB.DL.H264.DDP.5.1.DusIcTv / Telugu - Movies
Nabab 2019 Bangla Movie Shakib Khan HDRip 1GB / Bangla - Movies
Devon Ke Dev... Mahadev (2011) Hindi - {Episodes 224 To 344 } - 720p WEB-DL - x264 - AAC 2.0 - Sun George / Bollywood - WebHD
The Avengers Earths Mightiest Heroes [2010-12] Complete S01 1080p Bluray x 264 Duel Aud [Hin DD 2.0 + Eng DDP 5.1] - Esub Reperza-Cinemaghar  / Hollywood - Anime, Cartoon
The Avengers Earths Mightiest Heroes [2010-12] Complete S01 720p Bluray x 264 Duel Aud [Hin DD 2.0 + Eng DDP 5.1] - Esub Reperza-Cinemaghar  / Hollywood - Anime, Cartoon

Torrent Details For "Silk Roads Motorbike Adventures (2016) 576p Italian AMZN WEB-DL DDP 2.0 ESub - DusIcTv"

Silk Roads Motorbike Adventures (2016) 576p Italian AMZN WEB-DL DDP 2.0 ESub - DusIcTv

Download this torrent -- Magnet Download

Health:
Seeds: 30
Leechers: 68
Completed:
Last Checked: 28-06-2019 10:53:32
External Torrent
UPDATE_STATS


Details
Name:Silk Roads Motorbike Adventures (2016) 576p Italian AMZN WEB-DL DDP 2.0 ESub - DusIcTv
Description:



Silk Roads Motorbike Adventures (2016) 576p Italian AMZN WEB-DL DDP 2.0 ESub - DusIcTv


General
Complete name                            : Silk Roads Motorbike Adventures (2016) 576p Italian AMZN WEB-DL DDP 2.0 ESub - DusIcTv.mkv
Format                                   : Matroska
Format version                           : Version 4 / Version 2
File size                                : 1.91 GiB
Duration                                 : 1 h 41 min
Overall bit rate                         : 2 691 kb/s
Encoded date                             : UTC 2018-11-23 07:40:38
Writing application                      : mkvmerge v25.0.0 ('Prog Noir') 32-bit
Writing library                          : libebml v1.3.6 + libmatroska v1.4.9

Video
ID                                       : 1
Format                                   : AVC
Format/Info                              : Advanced Video Codec
Format profile                           : [email protected]
Format settings                          : CABAC / 5 Ref Frames
Format settings, CABAC                   : Yes
Format settings, RefFrames               : 5 frames
Codec ID                                 : V_MPEG4/ISO/AVC
Duration                                 : 1 h 41 min
Bit rate                                 : 2 465 kb/s
Width                                    : 720 pixels
Height                                   : 576 pixels
Display aspect ratio                     : 16:9
Frame rate mode                          : Constant
Frame rate                               : 29.970 (30000/1001) FPS
Color space                              : YUV
Chroma subsampling                       : 4:2:0
Bit depth                                : 8 bits
Scan type                                : Progressive
Bits/(Pixel*Frame)                       : 0.198
Stream size                              : 1.75 GiB (92%)
Default                                  : Yes
Forced                                   : No
Color range                              : Limited
Color primaries                          : BT.709
Transfer characteristics                 : BT.709
Matrix coefficients                      : BT.709

Audio
ID                                       : 2
Format                                   : E-AC-3
Format/Info                              : Enhanced Audio Coding 3
Codec ID                                 : A_EAC3
Duration                                 : 1 h 41 min
Bit rate mode                            : Constant
Bit rate                                 : 224 kb/s
Channel(s)                               : 2 channels
Channel positions                        : Front: L R
Sampling rate                            : 48.0 kHz
Frame rate                               : 187.500 FPS (256 SPF)
Compression mode                         : Lossy
Stream size                              : 163 MiB (8%)
Title                                    : Italian
Language                                 : Italian
Service kind                             : Complete Main
Default                                  : No
Forced                                   : No

Text
ID                                       : 3
Format                                   : UTF-8
Codec ID                                 : S_TEXT/UTF8
Codec ID/Info                            : UTF-8 Plain Text
Duration                                 : 1 h 38 min
Bit rate                                 : 103 b/s
Count of elements                        : 1633
Stream size                              : 74.7 KiB (0%)
Title                                    : English [SDH]
Language                                 : English
Default                                  : No
Forced                                   : No







Quote:

- 576p WEBHD, 2.0 audio & Dnglish Subtitle!
- Enjoy DUS & ICTV Exclusive Release!

In case of re-seed on any torrent, please pm.
If you share this torrent anywhere, give credits to LP1 @ DusIcTv.
Category:Other > Other
Lang:Italian  Italian
Total Size:1.91 GB
Info Hash:c99ebe07526d2040263b37ce94902aa4e4d4f0ad
Added By:LP1BWT
Date Added:16-04-2019 19:25:48
Views:63
Hits:11


Ratings:Not Yet Rated (Log in to rate it)

  


Tracker:
udp://tracker.publicbt.com:80/announce

This Torrent also has backup trackers
URLSeedersLeechersCompleted
http://tracker.electro-torrent.pl:80/announce120
http://retracker.mgts.by:80/announce000
http://t.nyaatracker.com:80/announce000
https://bwt.pw/announce.php30480


File List: 


Comments

NOCOMMENTS

Page Generated In 0.000000 secs.